новый адрес
Ссылка на приватное зеркало всего за 1$. Внимание количество ограничено!!!

iTunes

1+1

iTunes

мы

WEB-DL

1

iTunes

Чернобыль

iTunes

Ральф против интернета

Лицензия

ПШазам

Лицензия

Оно 2

Лицензия

30
pack

Вам бонус

ВАЖНО

!!Акция!!

Alien_RageХит недели

RePack

Resident Evil 21

ИГРА 18+

pack

RePack

jed

!!Акция!!

Alien_Rage

RePack

fifa19

RePack

Assassins Creed: Odyssey

RePack

NEED FOR SPEED™ PAYBACK

3 сезон

9 сезон

Бесстыжие 9 сезон

Все сериалы

все сериалы на PB.wtf

RePack

FAR CRY 5
Ребята, катастрофически не хватает 1900р. для оплаты серверов за Октябрь (всвязи с блокировками трафик упал в 3 раза), 1-2р., выручайте.
  

Корпорация «Святые моторы» / Holy Motors (Леос Каракс) [2012 г., фэнтези, драма, BDRip 720p, MVO, лицензия] pb.wtf

Корпорация «Святые моторы» через торрент pb.wtf

Размер: 4.98 GB | Добавлен: 6 лет 8 мес. назад | Торрент скачан:117 раз
Скачать  

21-03-2013 09:34 Корпорация «Святые моторы» Скачать торрент  

Корпорация «Святые моторы» / Holy Motors

Год выпуска: 2012
Страна: Франция Германия
Жанр: фэнтези, драма,
Продолжительность: 01:55:30
Перевод: Профессиональный многоголосый, Лицензия
Тип релиза: Лицензия
Субтитры: Есть

Режиссер: Леос Каракс
Продюссер: Мартин Мариньяк, Альберт Превост, Морис Тиншант
Сценарий: Леос Каракс

Мировой рейтинг IMDB 7.10 (10 611)


В ролях: Дени Лаван, Эдит Скоб, Ева Мендес, Кайли Миноуг, Мишель Пикколи, Жанна Диссон, Элис Ломо, Леос Каракс, Настя Голубева Каракс, Реда Омузун,

Описание: Неведомое существо перемещается из жизни в жизнь. Обретает форму то мужчины, то женщины, то юноши, то умирающего старика. Он может оказаться нищим или сказочным богачом, плутом или достойным семьянином.Героя фильма будет кидать по чужим жизням, он будет обнимать чужих жен и детей, убивать чужих врагов. Однако, сам он смертельно одинок. Где его дом, его близкие, что он такое на самом деле?

Качество: BDRip 720p
Формат: MKV
Видео кодек: H.26x
Аудио кодек: AC3/DTS
Видео: 1280x688 (1.860), 24.000 fps, 4 232 Kbps (0.200 bit/pixel)
Аудио#1: AC-3, 48.0 KHz, 6 ch, 448 Kbps, CBR (Russian)
Аудио#2: DTS, 48.0 KHz, 6 ch, 1 510 Kbps, CBR (English)
Субтитры: Russian, Russian, English







Общее
Уникальный идентификатор : 216856700421981154927116418941498817606 (0xA32514CFF852C96BB5111236A185FC46)
Полное имя : E:Корпорация «Святые моторы».2012.BDRip.720p..mkv
Формат : Matroska
Версия формата : Version 2
Размер файла : 4,98 Гбайт
Продолжительность : 1 ч. 55 м.
Общий поток : 6178 Кбит/сек
Название фильма : UnionGang.tv
Дата кодирования : UTC 2013-01-21 15:13:37
Программа кодирования : mkvmerge v5.3.0 ('I could have danced') built on Feb 9 2012 10:38:07
Библиотека кодирования : libebml v1.2.3 + libmatroska v1.3.0

Видео
Идентификатор : 1
Формат : AVC
Формат/Информация : Advanced Video Codec
Профиль формата : High@L4.1
Параметр CABAC формата : Да
Параметр ReFrames формата : 11 кадров
Идентификатор кодека : V_MPEG4/ISO/AVC
Продолжительность : 1 ч. 55 м.
Битрейт : 4232 Кбит/сек
Ширина : 1280 пикселей
Высота : 688 пикселей
Соотношение сторон : 1,85:1
Режим частоты кадров : Постоянный
Частота кадров : 24,000 кадра/сек
Цветовое пространство : YUV
Субдискретизация насыщенности : 4:2:0
Битовая глубина : 8 бит
Тип развёртки : Прогрессивная
Бит/(Пиксели*Кадры) : 0.200
Размер потока : 3,31 Гбайт (66%)
Заголовок : Korporacija.Svjatye.motori.2012.P.BDRip.720p.UnionGang.tv
Библиотека кодирования : x264 core 119 r2106 07efeb4
Настройки программы : cabac=1 / ref=11 / deblock=1:-3:-3 / analyse=0x3:0x113 / me=umh / subme=11 / psy=1 / psy_rd=1.10:1.00 / mixed_ref=1 / me_range=32 / chroma_me=1 / trellis=2 / 8x8dct=1 / cqm=0 / deadzone=21,11 / fast_pskip=0 / chroma_qp_offset=-4 / threads=6 / sliced_threads=0 / nr=0 / decimate=1 / interlaced=0 / bluray_compat=0 / constrained_intra=0 / bframes=9 / b_pyramid=2 / b_adapt=2 / b_bias=0 / direct=3 / weightb=1 / open_gop=0 / weightp=2 / keyint=250 / keyint_min=23 / scenecut=40 / intra_refresh=0 / rc=2pass / mbtree=0 / bitrate=4232 / ratetol=1.0 / qcomp=0.65 / qpmin=0 / qpmax=69 / qpstep=4 / cplxblur=20.0 / qblur=0.5 / ip_ratio=1.40 / pb_ratio=1.30 / aq=1:1.00
Язык : English
Default : Да
Forced : Нет

Аудио #1
Идентификатор : 2
Формат : AC-3
Формат/Информация : Audio Coding 3
Расширение режима : CM (complete main)
Параметр Endianness формата : Big
Идентификатор кодека : A_AC3
Продолжительность : 1 ч. 55 м.
Вид битрейта : Постоянный
Битрейт : 448 Кбит/сек
Каналы : 6 каналов
Расположение каналов : Front: L C R, Side: L R, LFE
Частота : 48,0 КГц
Битовая глубина : 16 бит
Метод сжатия : С потерями
Размер потока : 370 Мбайт (7%)
Заголовок : MVO R5
Язык : Russian
Default : Да
Forced : Нет

Аудио #2
Идентификатор : 3
Формат : DTS
Формат/Информация : Digital Theater Systems
Режим : 16
Параметр Endianness формата : Big
Идентификатор кодека : A_DTS
Продолжительность : 1 ч. 55 м.
Вид битрейта : Постоянный
Битрейт : 1509 Кбит/сек
Каналы : 6 каналов
Расположение каналов : Front: L C R, Side: L R, LFE
Частота : 48,0 КГц
Битовая глубина : 24 бит
Метод сжатия : С потерями
Размер потока : 1,22 Гбайт (24%)
Язык : English
Default : Нет
Forced : Нет

Текст #1
Идентификатор : 4
Формат : UTF-8
Идентификатор кодека : S_TEXT/UTF8
Идентификатор кодека/Информация : UTF-8 Plain Text
Язык : Russian
Default : Нет
Forced : Нет

Текст #2
Идентификатор : 5
Формат : UTF-8
Идентификатор кодека : S_TEXT/UTF8
Идентификатор кодека/Информация : UTF-8 Plain Text
Заголовок : Voronine
Язык : Russian
Default : Нет
Forced : Нет

Текст #3
Идентификатор : 6
Формат : UTF-8
Идентификатор кодека : S_TEXT/UTF8
Идентификатор кодека/Информация : UTF-8 Plain Text
Язык : English
Default : Нет
Forced : Нет

Меню
00:00:00.000 : en:00:00:00.000
00:09:53.792 : en:00:09:53.792
00:18:45.708 : en:00:18:45.708
00:31:17.833 : en:00:31:17.833
00:41:49.708 : en:00:41:49.708
00:52:06.042 : en:00:52:06.042
01:02:09.833 : en:01:02:09.833
01:11:20.917 : en:01:11:20.917
01:22:57.417 : en:01:22:57.417
01:32:01.542 : en:01:32:01.542
01:42:51.833 : en:01:42:51.833
01:50:48.500 : en:01:50:48.500


Корпорация «Святые моторы» скачать торрент


pb.wtf



Скачать Корпорация «Святые моторы» через торрент http://pic.kartinco.top/images/2/trkcfgrh22.png Скачать фильм Корпорация «Святые моторы» через торрент бесплантно в хорошем качестве Описание: Неведомое существо перемещается из жизни в жизнь. Обретает форму то мужчины, то женщины, то юноши, то умирающего старика. Он ... 8 10 6
Info! Золотая раздача, скачанное не засчитывается.
Торрент: Зарегистрирован [2013-03-21 09:34] · скачан: 117 раз
Статус: √ проверено
Размер: 4.98 GB
Как cкачать? Как скачать Корпорация «Святые моторы» через торрент | qTorrent

% Раздел Тема Автор DL S | L
Арт-хаус и авторское кино [ 12.66 GB ] Корпорация «Святые моторы» / Holy Motors [2012 BDRip 1080p by msltel] 2 x MVO msltel Скачать
1 | 0
Арт-хаус и авторское кино [ 4.83 GB ] Корпорация «Святые моторы» / Holy Motors [2012 BDRip 720p by msltel] 2 x MVO msltel Скачать
1 | 0
Арт-хаус и авторское кино [ 2.18 GB ] Корпорация «Святые моторы» / Holy Motors [2012 Германия BDRip Ворон Скачать
1 | 0
Арт-хаус и авторское кино [ 1007 MB ] Корпорация «Святые моторы» / Holy Motors [2012 DVDRip MVO] DEVI Скачать
1 | 0

28-11-2019 20:33  

Отключить всю рекламу на сайте

    Дорогой пользователь! Огромная просьба, поблагодарите релизера, оцените раздачу и оставьте свои комментарий, если Вы скачали Корпорация «Святые моторы» через торрент бесплатно! Внесите свою лепту в развитие PiratBit!
    Комментировать посты могут только пользователи прошедшие не сложную регистрацию
    Показать сообщения:    

    Корпорация «Святые моторы» через торрент
    Скачать бесплатно Корпорация «Святые моторы»
    Корпорация «Святые моторы» скачать торрент
    Корпорация «Святые моторы» смотреть онлайн
    Cкачать фильм Корпорация «Святые моторы» бесплатно
    Корпорация «Святые моторы» скачать торрент в хорошем качестве
    Корпорация «Святые моторы» смотреть онлайн бесплатно в хорошем качестве


    Вы не можете начинать темы
    Вы не можете отвечать на сообщения
    Вы не можете редактировать свои сообщения
    Вы не можете удалять свои сообщения
    Вы не можете голосовать в опросах
    Вы не можете прикреплять файлы к сообщениям
    Вы можете скачивать файлы