Ссылка на приватное зеркало нашего сайта всего за 1$. Внимание количество ограничено!!!

2 сезон

iTunes

1 сезон

1

iTunes

iTunes

iTunes

1 сезон

RePack

30

ИГРА 18+

pack

ВАЖНО

!!Акция!!

Alien_RageХит недели

RePack

MK11
pack

Забери бонус

RePack

jed

!!Акция!!

Alien_Rage

RePack

fifa19

RePack

Assassins Creed: Odyssey

RePack

NEED FOR SPEED™ PAYBACK

4 сезон

9 сезон

Бесстыжие 9 сезон

Все сериалы

все сериалы на PB.wtf

RePack

FAR CRY 5
  

Легенда о Красном Орле / Aguila Roja, la pelicula (Хосе Рамон Айерра) [2011 г., боевик, комедия, приключения, BDRip 720p, MVO, лицензия] pb.wtf

Легенда о Красном Орле через торрент pb.wtf

Размер: 6.49 GB | Добавлен: 7 лет 6 мес. назад | Торрент скачан:58 раз
Скачать  

21-03-2013 09:48 Легенда о Красном Орле Скачать торрент  

Легенда о Красном Орле / Aguila Roja la pelicula

Год выпуска: 2011
Страна: Испания
Жанр: боевик, комедия, приключения,
Продолжительность: 01:58:19
Перевод: Профессиональный многоголосый, Лицензия
Тип релиза: Лицензия
Субтитры: Нет

Режиссер: Хосе Рамон Айерра
Продюссер: Даниэль Эсиха, Сантьяго Де Ла Рика, Аранча Эсиха
Сценарий: Гильермо Сиснерос, Пилар Надаль, Жуанма Руис Кордоба

Мировой рейтинг IMDB 4.30 (184)


В ролях: Давид Ханер, Хавьер Гутиеррез, Франсис Лоренсо, Инма Куэста, Мириам Галлего, Роберто Аламо, Пепа Аниорте, Сантьяго Молеро, Ксабьер Элорриага, Хосе Анхель Эхидо,

Описание: XVII век, встреча представителей самых влиятельных стран того времени: Франции, Англии и Португалии. Для участия в ней приехал даже Папа Римский. Хотя все эти страны собрались для поиска путей примирения испанцев с их противниками, реальные мотивы встречи состоят в намерении атаковать королевство Испании. Чтобы гарантировать успех заговора, возглавляемого маркизой Сантиллана, совет решает с помощью кровожадного наемника покончить с непокорным Красным Орлом...

Качество: BDRip 720p
Формат: MKV
Видео кодек: H.26x
Аудио кодек: AC3
Видео: 1280x544 (2.35:1), 25.000 fps, 7 151 Kbps (0.411 bit/pixel)
Аудио#1: AC-3, 48.0 KHz, 6 ch, 256 Kbps, CBR (Russian)
Аудио#2: AC-3, 48.0 KHz, 6 ch, 448 Kbps, CBR (Spanish)







Общее
Уникальный идентификатор : 177162282874295513270935018651439289264 (0x854836ED6D8486F0A0B665B3327F53B0)
Полное имя : E:Легенда о Красном Орле.2011.BDRip.720p..mkv
Формат : Matroska
Версия формата : Version 2
Размер файла : 6,49 Гбайт
Продолжительность : 1 ч. 58 м.
Общий поток : 7854 Кбит/сек
Название фильма : Legenda.o.Krasnom.Orle.2011.P.BDRip.720p.IRONCLUB
Дата кодирования : UTC 2012-11-29 18:47:20
Программа кодирования : mkvmerge v4.0.0 ('The Stars were mine') сборка от Jun 6 2010 16:18:42
Библиотека кодирования : libebml v1.0.0 + libmatroska v1.0.0

Видео
Идентификатор : 1
Формат : AVC
Формат/Информация : Advanced Video Codec
Профиль формата : High@L4.1
Параметр CABAC формата : Да
Параметр ReFrames формата : 12 кадров
Идентификатор кодека : V_MPEG4/ISO/AVC
Продолжительность : 1 ч. 58 м.
Битрейт : 7151 Кбит/сек
Ширина : 1280 пикселей
Высота : 544 пикселя
Соотношение сторон : 2,35:1
Режим частоты кадров : Постоянный
Частота кадров : 25,000 кадров/сек
Цветовое пространство : YUV
Субдискретизация насыщенности : 4:2:0
Битовая глубина : 8 бит
Тип развёртки : Прогрессивная
Бит/(Пиксели*Кадры) : 0.411
Размер потока : 5,78 Гбайт (89%)
Библиотека кодирования : x264 core 116 r2074 2641b9e
Настройки программы : cabac=1 / ref=12 / deblock=1:-3:-3 / analyse=0x3:0x133 / me=umh / subme=10 / psy=1 / psy_rd=0.95:0.05 / mixed_ref=1 / me_range=48 / chroma_me=1 / trellis=2 / 8x8dct=1 / cqm=0 / deadzone=21,11 / fast_pskip=0 / chroma_qp_offset=-3 / threads=12 / sliced_threads=0 / nr=0 / decimate=0 / interlaced=0 / bluray_compat=0 / constrained_intra=0 / bframes=6 / b_pyramid=2 / b_adapt=2 / b_bias=0 / direct=3 / weightb=1 / open_gop=0 / weightp=2 / keyint=360 / keyint_min=2 / scenecut=40 / intra_refresh=0 / rc_lookahead=60 / rc=2pass / mbtree=1 / bitrate=7151 / ratetol=1.0 / qcomp=0.70 / qpmin=0 / qpmax=69 / qpstep=4 / cplxblur=20.0 / qblur=0.5 / vbv_maxrate=50000 / vbv_bufsize=30000 / nal_hrd=none / ip_ratio=1.40 / aq=2:1.00
Default : Нет
Forced : Нет

Аудио #1
Идентификатор : 2
Формат : AC-3
Формат/Информация : Audio Coding 3
Расширение режима : CM (complete main)
Параметр Endianness формата : Big
Идентификатор кодека : A_AC3
Продолжительность : 1 ч. 58 м.
Вид битрейта : Постоянный
Битрейт : 256 Кбит/сек
Каналы : 6 каналов
Расположение каналов : Front: L C R, Side: L R, LFE
Частота : 48,0 КГц
Битовая глубина : 16 бит
Метод сжатия : С потерями
Размер потока : 217 Мбайт (3%)
Заголовок : MVO R5
Язык : Russian
Default : Да
Forced : Нет

Аудио #2
Идентификатор : 3
Формат : AC-3
Формат/Информация : Audio Coding 3
Расширение режима : CM (complete main)
Параметр Endianness формата : Big
Идентификатор кодека : A_AC3
Продолжительность : 1 ч. 58 м.
Вид битрейта : Постоянный
Битрейт : 448 Кбит/сек
Каналы : 6 каналов
Расположение каналов : Front: L C R, Side: L R, LFE
Частота : 48,0 КГц
Битовая глубина : 16 бит
Метод сжатия : С потерями
Размер потока : 379 Мбайт (6%)
Заголовок : Spanish DD 5.1
Язык : Spanish
Default : Нет
Forced : Нет

Меню
00:00:00.000 : en:Chapter.01
00:09:43.120 : en:Chapter.02
00:19:33.360 : en:Chapter.03
00:29:04.840 : en:Chapter.04
00:41:09.680 : en:Chapter.05
00:50:45.640 : en:Chapter.06
01:00:12.840 : en:Chapter.07
01:10:56.520 : en:Chapter.08
01:19:51.200 : en:Chapter.09
01:30:15.960 : en:Chapter.10
01:40:31.120 : en:Chapter.11
01:48:08.240 : en:Chapter.12


Легенда о Красном Орле скачать торрент






pb.wtf



Скачать Легенда о Красном Орле через торрент http://pic.kartinco.top/images/2/o6nblhsrfj.png Скачать фильм Легенда о Красном Орле через торрент бесплантно в хорошем качестве Описание: XVII век, встреча представителей самых влиятельных стран того времени: Франции, Англии и Португалии. Для участия в ней приехал ... 8.5 10 6
Info! Золотая раздача, скачанное не засчитывается.
Торрент: Зарегистрирован [2013-03-21 09:48] · скачан: 58 раз
Статус: √ проверено
Размер: 6.49 GB
Как cкачать? Как скачать Легенда о Красном Орле через торрент | qTorrent

% Раздел Тема Автор DL S | L
Фильмы 2011 [ 2.05 GB ] Легенда о Красном Орле / Aguila Roja la pelicula [2011 HDRip MVO лицензия] PsYcho Скачать
1 | 0

28-11-2019 20:33  

Отключить всю рекламу на сайте

    Дорогой пользователь! Огромная просьба, поблагодарите релизера, оцените раздачу и оставьте свои комментарий, если Вы скачали Легенда о Красном Орле через торрент бесплатно! Внесите свою лепту в развитие PiratBit!
    Комментировать посты могут только пользователи прошедшие не сложную регистрацию
    Показать сообщения:    

    Легенда о Красном Орле через торрент
    Скачать бесплатно Легенда о Красном Орле
    Легенда о Красном Орле скачать торрент
    Легенда о Красном Орле смотреть онлайн
    Cкачать фильм Легенда о Красном Орле бесплатно
    Легенда о Красном Орле скачать торрент в хорошем качестве
    Легенда о Красном Орле смотреть онлайн бесплатно в хорошем качестве


    Вы не можете начинать темы
    Вы не можете отвечать на сообщения
    Вы не можете редактировать свои сообщения
    Вы не можете удалять свои сообщения
    Вы не можете голосовать в опросах
    Вы не можете прикреплять файлы к сообщениям
    Вы можете скачивать файлы