Ссылка на приватное зеркало нашего сайта всего за 1$. Внимание количество ограничено!!!

2 сезон

iTunes

1 сезон

1

iTunes

iTunes

iTunes

1 сезон

RePack

30

ИГРА 18+

pack

ВАЖНО

!!Акция!!

Alien_RageХит недели

RePack

MK11
pack

Забери бонус

RePack

jed

!!Акция!!

Alien_Rage

RePack

fifa19

RePack

Assassins Creed: Odyssey

RePack

NEED FOR SPEED™ PAYBACK

4 сезон

9 сезон

Бесстыжие 9 сезон

Все сериалы

все сериалы на PB.wtf

RePack

FAR CRY 5
  

Мачете / Machete (Этан Маникис, Роберт Родригес) [2010 г., боевик, триллер, комедия, криминал, BDRip 720p, Дубляж, лицензия] pb.wtf

Мачете через торрент pb.wtf

Размер: 7.65 GB | Добавлен: 7 лет 7 мес. назад | Торрент скачан:118 раз
Скачать  

21-03-2013 10:08 Мачете Скачать торрент  



Мачете / Machete

«He was given an offer he couldn't refuse...»

Год выпуска: 2010
Страна: США
Жанр: боевик, триллер, комедия, криминал,
Продолжительность: 01:44:59
Перевод: Дубляж, Лицензия
Тип релиза:Лицензия
Субтитры: Есть

Режиссер: Этан Маникис Роберт Родригес
Продюссер: Элизабет Авеллан, Роберт Родригес, Рик Шварц
Сценарий: Роберт Родригес, Альваро Родригес

Бюджет: $10 500 000

Мировой рейтинг IMDB 6.80 (109 474)


В ролях: Дэнни Трехо, Джессика Альба, Мишель Родригес, Джефф Фэйи, Роберт Де Ниро, Стивен Сигал, Чич Марин, Дон Джонсон, Ши Уигхэм, Линдси Лохан, Сергей Чонишвили, Екатерина Щанкина, Инна Королёва, Борис Токарев, Никита Прозоровский,

Описание: Во время покушения на сенатора опытный наемник Мачете обнаружил, что находится на мушке у снайпера. С трудом избежав смерти, он узнает, что его подставили собственные наниматели и теперь его целью является месть.

Качество: BDRip 720p
Формат: MKV
Видео кодек: H.26x
Аудио кодек: DTS
Видео: 1280x694 (16:9), 23.976 fps, 7 411 Kbps (0.348 bit/pixel)
Аудио#1: DTS, 48.0 KHz, 6 ch, 1 510 Kbps, CBR (Russian)
Аудио#2: DTS, 48.0 KHz, 6 ch, 1 510 Kbps, CBR (English)
Субтитры: English, Russian










Общее
Уникальный идентификатор : 189303706419922035973815248046248698776 (0x8E6A9153546DA097B830C5D811702398)
Полное имя : E:Мачете.2010.x264.BDRip(720p).mkv
Формат : Matroska
Версия формата : Version 2
Размер файла : 7,65 Гбайт
Продолжительность : 1 ч. 44 м.
Общий поток : 10,4 Мбит/сек
Дата кодирования : UTC 2010-12-11 16:56:08
Программа кодирования : mkvmerge v3.4.0 ('Rapunzel') сборка от May 15 2010 09:38:20
Библиотека кодирования : libebml v0.8.0 + libmatroska v0.9.0

Видео
Идентификатор : 1
Формат : AVC
Формат/Информация : Advanced Video Codec
Профиль формата : High@L4.1
Параметр CABAC формата : Да
Параметр ReFrames формата : 9 кадров
Идентификатор кодека : V_MPEG4/ISO/AVC
Продолжительность : 1 ч. 44 м.
Битрейт : 7411 Кбит/сек
Ширина : 1280 пикселей
Высота : 694 пикселя
Соотношение сторон : 1,85:1
Режим частоты кадров : Постоянный
Частота кадров : 23,976 кадра/сек
Цветовое пространство : YUV
Субдискретизация насыщенности : 4:2:0
Битовая глубина : 8 бит
Тип развёртки : Прогрессивная
Бит/(Пиксели*Кадры) : 0.348
Размер потока : 5,29 Гбайт (69%)
Заголовок : Machete.2010.BluRay.US.720p.DTS.x264-CHD
Библиотека кодирования : x264 core 102 r1666 d058f37
Настройки программы : cabac=1 / ref=9 / deblock=1:-3:-3 / analyse=0x3:0x113 / me=umh / subme=10 / psy=1 / psy_rd=1.05:0.10 / mixed_ref=1 / me_range=32 / chroma_me=1 / trellis=2 / 8x8dct=1 / cqm=2 / deadzone=21,11 / fast_pskip=0 / chroma_qp_offset=-2 / threads=6 / sliced_threads=0 / nr=0 / decimate=1 / interlaced=0 / constrained_intra=0 / bframes=6 / b_pyramid=2 / b_adapt=2 / b_bias=0 / direct=3 / weightb=1 / open_gop=0 / weightp=2 / keyint=250 / keyint_min=25 / scenecut=40 / intra_refresh=0 / rc_lookahead=40 / rc=2pass / mbtree=1 / bitrate=7411 / ratetol=1.0 / qcomp=0.60 / qpmin=10 / qpmax=51 / qpstep=4 / cplxblur=20.0 / qblur=0.5 / vbv_maxrate=50000 / vbv_bufsize=50000 / ip_ratio=1.40 / aq=1:0.80 / nal_hrd=none
Язык : English
Default : Нет
Forced : Нет

Аудио #1
Идентификатор : 2
Формат : DTS
Формат/Информация : Digital Theater Systems
Режим : 16
Параметр Endianness формата : Big
Идентификатор кодека : A_DTS
Продолжительность : 1 ч. 44 м.
Вид битрейта : Постоянный
Битрейт : 1509 Кбит/сек
Каналы : 6 каналов
Расположение каналов : Front: L C R, Side: L R, LFE
Частота : 48,0 КГц
Битовая глубина : 16 бит
Метод сжатия : С потерями
Размер потока : 1,11 Гбайт (14%)
Заголовок : DTS дубляж
Язык : Russian
Default : Да
Forced : Нет

Аудио #2
Идентификатор : 3
Формат : DTS
Формат/Информация : Digital Theater Systems
Режим : 16
Параметр Endianness формата : Big
Идентификатор кодека : A_DTS
Продолжительность : 1 ч. 44 м.
Вид битрейта : Постоянный
Битрейт : 1509 Кбит/сек
Каналы : 6 каналов
Расположение каналов : Front: L C R, Side: L R, LFE
Частота : 48,0 КГц
Битовая глубина : 24 бит
Метод сжатия : С потерями
Размер потока : 1,11 Гбайт (14%)
Заголовок : Machete.2010.DTS-HD.MA Core_1509kbps
Язык : English
Default : Нет
Forced : Нет

Текст #1
Идентификатор : 4
Формат : UTF-8
Идентификатор кодека : S_TEXT/UTF8
Идентификатор кодека/Информация : UTF-8 Plain Text
Язык : English
Default : Нет
Forced : Нет

Текст #2
Идентификатор : 5
Формат : UTF-8
Идентификатор кодека : S_TEXT/UTF8
Идентификатор кодека/Информация : UTF-8 Plain Text
Язык : Russian
Default : Нет
Forced : Нет


Мачете скачать торрент






pb.wtf



Скачать Мачете через торрент http://pic.kartinco.top/images/2/s3e8747ptc.png Скачать фильм Мачете через торрент бесплантно в хорошем качестве Описание: Во время покушения на сенатора опытный наемник Мачете обнаружил, что находится на мушке у снайпера. С трудом избежав смерти, он ... 10 10 16
Info! Золотая раздача, скачанное не засчитывается.
Торрент: Зарегистрирован [2013-03-21 10:08] · скачан: 118 раз
Статус: √ проверено
Размер: 7.65 GB
Как cкачать? Как скачать Мачете через торрент | qTorrent

% Раздел Тема Автор DL S | L
Фильмы с авторской озвучкой [ 2.19 GB ] Мачете убивает / Machete Kills [2013 HDRip] 2x[AVO] killermax2013 Скачать
1 | 0
Фильмы с авторской озвучкой [ 1.46 GB ] Мачете / Machete [2010 BDRip] [US-Transfer] [AVO] killermax2013 Скачать
1 | 0
Фильмы (HD 720p, 1080p) (48-60 fps) [ 17.07 GB ] Мачете / Machete [2010 BDRip 720p by mimok [] 60fps mimok Скачать
2 | 0
Фильмы (Blu-ray, BD-Remux, HDDVD) [ 23.29 GB ] Мачете убивает / Machete Kills [2013 BD-Remux USA Transfer ] Seedtank Скачать
1 | 0
Фильмы (Blu-ray, BD-Remux, HDDVD) [ 32.25 GB ] Мачете убивает / Machete Kills [2013 Россия BDRemux 1080p] [US Transfer] Dub + VO + Original + Subs Ворон Скачать
1 | 0
Фильмы 2013 [DVDrip, WEB-DLRip, HDrip] [ 1.37 GB ] Мачете убивает / Machete Kills [ 2013 Россия HDRip ] МАКС1 Скачать
1 | 0
Фильмы 2013 [DVDrip, WEB-DLRip, HDrip] [ 2.26 GB ] Мачете убивает / Machete Kills [2013 BDRip-AVC] [US-Transfer] Dub + Original + Sub potroks Скачать
1 | 0

28-11-2019 20:33  

Отключить всю рекламу на сайте

    Дорогой пользователь! Огромная просьба, поблагодарите релизера, оцените раздачу и оставьте свои комментарий, если Вы скачали Мачете через торрент бесплатно! Внесите свою лепту в развитие PiratBit!
    Комментировать посты могут только пользователи прошедшие не сложную регистрацию
    Показать сообщения:    

    Мачете через торрент
    Скачать бесплатно Мачете
    Мачете скачать торрент
    Мачете смотреть онлайн
    Cкачать фильм Мачете бесплатно
    Мачете скачать торрент в хорошем качестве
    Мачете смотреть онлайн бесплатно в хорошем качестве


    Вы не можете начинать темы
    Вы не можете отвечать на сообщения
    Вы не можете редактировать свои сообщения
    Вы не можете удалять свои сообщения
    Вы не можете голосовать в опросах
    Вы не можете прикреплять файлы к сообщениям
    Вы можете скачивать файлы