Доктор Стрэндж

Лицензия

Добыча

Дубляж

Дом дракона

1 сезон

Тор

Дубляж

В эфире

Дубляж

Там, где раки поют

MVO

Властелин колец

1 сезон

GLOBAL

pack

Рекомендуем

30

Пиратка

ВАЖНО

ВАЖНО

Ghostwire

Пиратка

jed

RePack

nioh2

RePack

RDR2

RePack

NEED FOR SPEED™ PAYBACK

RePack

скачать торрент

Кинопоиск HD

Острые козырьки 6 сезон

6 сезон

FAR CRY 6

RePack

скачать торрент

Лицензия

скачать торрент

MVO

1

1 сезон

скачать торрент

1 сезон

скачать торрент

Лицензия

  

Наруто Фильм 5(Узы) / Naruto (Хадзимэ Камэгаки) [2008 г., анимация, фантастика, фэнтези, каратэ, мистика, боевик, комедия, DVDRip, MVO]

Наруто Фильм 5 через торрент pb.wtf

Размер: 617 MB | Добавлен: 9 лет 8 мес. назад | Торрент скачан:41 раз
Смотреть онлайн | Скачать   

21-03-2013 15:04 Наруто Фильм 5 Скачать торрент  

Наруто Фильм 5(Узы) / Naruto
Год выпуска: 2008
Страна: Япония
Жанр: анимация, фантастика, фэнтези, каратэ, мистика, боевик, комедия,
Продолжительность: 90 мин. / 01:30
Перевод: Любительский многоголосый
Тип релиза: Пиратка
Субтитры: Отсутствуют

Режиссер: Хадзимэ Камэгаки
Продюссер: -
Сценарий: Масаси Кишимото, Дзюнки Такэгами


Бюджет: 100000$
Премьера в мире: 2 августа 2008




В ролях: Дзюнко Такэути, Кадзухико Иноэ, Уншо Ишизука, Кентаро Ито.


Описание: По старым долгам надо платить. И вновь неведомый враг предъявляет Конохе кровавый счет, вновь гибнут люди, и спасение Страны Огня зависит от горстки наших старых знакомых — Наруто, его друзей, учителей и старших товарищей. Едва пережив нападение на Листву, Наруто, Сакура и Хината вместе с целителем Синно и его ученицей Амару направляются на помощь людям приграничной деревни. В пути их ждут не только враги и битвы, но и крушение надежд, боль предательства. Возможно ли, что Синно — тот великий учитель, за тайнами которого охотится сам Оротимару? И если Саске и Наруто встретятся вновь, будут ли они стоять рядом или напротив друг друга?

Это повесть о неразрывных узах, которые связывают земляков и друзей, учителей и учеников, о тех связях, которые сильнее времени и расстояния, непонимания и гордыни. Именно так живет Деревня Листвы, без них не было бы самого популярного в мире аниме-сериала!


Качество: DVDRip
Формат: MPEG
Видео кодек: Другой MPEG4
Аудио кодек: AC3
Видео: 800 Кбит/сек, 854х480 пикселей, 23,976 кадра/сек
Аудио#1: 128 Кбит/сек , 2 канала ,44,1 КГц





Общее
Полное имя : D:MusornarutoфильмыНаруто Фильм 5.MP4
Формат : MPEG-4
Профиль формата : Base Media
Идентификатор кодека : isom
Размер файла : 617 Мбайт
Продолжительность : 1 ч. 33 м.
Режим общего битрейта : Переменный
Общий поток : 924 Кбит/сек
Программа кодирования : Lavf52.40.0

Видео
Идентификатор : 1
Формат : AVC
Формат/Информация : Advanced Video Codec
Профиль формата : [email protected]
Параметр CABAC формата : Да
Параметр ReFrames формата : 3 кадра
Идентификатор кодека : avc1
Идентификатор кодека/Информация : Advanced Video Coding
Продолжительность : 1 ч. 33 м.
Битрейт : 800 Кбит/сек
Ширина : 854 пикселя
Высота : 480 пикселей
Соотношение сторон : 16:9
Режим частоты кадров : Переменный
Частота кадров : 23,976 кадра/сек
Частота кадров в оригинале : 25,000 кадров/сек
Минимальная частота кадров : 12,500 кадров/сек
Максимальная частота кадров : 25,000 кадров/сек
Цветовое пространство : YUV
Субдискретизация насыщенности : 4:2:0
Битовая глубина : 8 бит
Тип развёртки : Прогрессивная
Бит/(Пиксели*Кадры) : 0.081
Размер потока : 528 Мбайт (86%)
Библиотека кодирования : x264 core 79
Настройки программы : cabac=1 / ref=3 / deblock=1:0:0 / analyse=0x3:0x113 / me=hex / subme=7 / psy=1 / psy_rd=1.0:0.0 / mixed_ref=1 / me_range=16 / chroma_me=1 / trellis=1 / 8x8dct=1 / cqm=0 / deadzone=21,11 / chroma_qp_offset=-2 / threads=24 / nr=0 / decimate=1 / mbaff=0 / constrained_intra=0 / bframes=3 / b_pyramid=0 / b_adapt=1 / b_bias=0 / direct=1 / wpredb=32 / wpredp=2 / keyint=250 / keyint_min=25 / scenecut=40 / rc_lookahead=40 / rc=abr / mbtree=1 / bitrate=800 / ratetol=5.0 / qcomp=0.60 / qpmin=10 / qpmax=51 / qpstep=4 / ip_ratio=1.41 / aq=1:1.00
Язык : Japanese

Аудио
Идентификатор : 2
Формат : AAC
Формат/Информация : Advanced Audio Codec
Профиль формата : LC
Идентификатор кодека : 40
Продолжительность : 1 ч. 33 м.
Вид битрейта : Переменный
Битрейт : 128 Кбит/сек
Каналы : 2 канала
Расположение каналов : Front: L R
Частота : 44,1 КГц
Метод сжатия : С потерями
Задержка видео : 40 мс.
Размер потока : 85,5 Мбайт (14%)
Язык : Russian




Скачать Наруто Фильм 5 через торрент https://pic1.kartinco.top/images/21/186j7p81l9.jpg Скачать, смотреть онлайн Наруто Фильм 5 бесплантно в хорошем качестве Описание: По старым долгам надо платить. И вновь неведомый враг предъявляет Конохе кровавый счет, вновь гибнут люди, и спасение Страны Огня ... 10 10 4
Info! Золотая раздача, скачанное не засчитывается.
Торрент: Зарегистрирован [2013-03-21 15:04] · скачан: 41 раз
Статус: √ проверено
Размер: 617 MB
Как cкачать? Как скачать Наруто Фильм 5 через торрент | UTorrent

28-11-2019 20:33  


Отключить вcю реклaмy на сайте, в т.ч. и в плеере онлайн просмотра!

23-03-2014 07:37 Наруто Фильм 5 Скачать торрент  

byblackmexx
Привет! Можешь сделать 1 сборник фильмы Наруто 1-9 части, формат AVI. Очень нужно, сынишка просил. А то на компе смотреть не очень, а мой dvd проигрователь не читает MPEG и MP4. Буду очень благодарен.



    Дорогой пользователь! Огромная просьба, поблагодарите релизера, оцените раздачу и оставьте свои комментарий, если Вы скачали Наруто Фильм 5 через торрент бесплатно!!
    Комментировать посты могут только пользователи прошедшие не сложную регистрацию
    Показать сообщения:    


    Наруто Фильм 5 через торрент
    Скачать бесплатно Наруто Фильм 5
    Наруто Фильм 5 скачать торрент
    Наруто Фильм 5 смотреть онлайн
    Cкачать фильм Наруто Фильм 5 бесплатно
    Наруто Фильм 5 скачать торрент в хорошем качестве
    Наруто Фильм 5 смотреть онлайн бесплатно в хорошем качестве
    Вы не можете начинать темы
    Вы не можете отвечать на сообщения
    Вы не можете редактировать свои сообщения
    Вы не можете удалять свои сообщения
    Вы не можете голосовать в опросах
    Вы не можете прикреплять файлы к сообщениям
    Вы можете скачивать файлы
    Наруто Фильм 5 / Naruto [2008 г., анимация, фантастика, фэнтези, каратэ, мистика, боевик, комедия, DVDRip, MVO] смотреть онлайн, скачать торрент picoco.icu