Присоединяйтесь к нам в Telegram!, здесь всегда актуальный адрес сайта, оперативная поддержка и многое другое!!

>

5.9

iTunes

7.4

iTunes

9.4

1 сезон

1

7.4

2 сезон

7.2

iTunes

7.3

1 сезон

13

6.1

iTunes

8.3

GOG

30

ULTIMATE

pack

9.9

Лицензия

ВАЖНО

ИГРА 18+

pack

7.3

RePack

MK11

7.7

RePack

jed

7.8

RePack

fifa19

8.5

RePack

RDR2

RePack

NEED FOR SPEED™ PAYBACK

5 сезон

9 сезон

Бесстыжие 9 сезон

Все сериалы

все сериалы на PB.wtf

RePack

FAR CRY 5

Anonymous, доброй ночи, мы катастрофически не успеваем собрать деньги на оплату серверов, помогите нам пожалуйста 5,10,15р., для нас важна любая помощь . В качестве благодарности мы отключим Вам всю рекламу на сайте (укажите свой ник в строку Ваше имя)!

×
  
Magnet ссылка

Alizee - A Cause De L'automne [2013 г., Pop, HDTV] pb.wtf

Alizee - A Cause De L'automne через торрент pb.wtf

Размер: 226 MB | Добавлен: 8 лет 8 мес. назад | Торрент скачан:328 раз
Смотреть онлайн Alizee - A Cause De L'automne | Скачать    Ребята, помогите собрать деньги на оплату серверов!!!

21-03-2013 20:25 Alizee - A Cause De L'automne Скачать торрент  

Alizee - A Cause De L'automne
Год выпуска: 2013
Страна: Франция
Жанр: Pop
Продолжительность: 00:03:56
Качество: HDTV
Формат: TS
Видео кодек: H.26x
Аудио кодек: AC3
Видео: 1920x1080, 25.000 fps, ~7 135 Kbps
Аудио#1: 48000Hz 2 ch 128 Kbps
Аудио#2: 48000Hz 6 ch 384kbps
скриншот   скриншот   скриншот  

Код:

General
Format : MPEG-TS
Format profile : No PAT/PMT
File size : 226 MiB
Duration : 3mn 55s
Overall bit rate : 8 050 Kbps

Video
ID : 2020 (0x7E4)
Format : AVC
Format/Info : Advanced Video Codec
Format profile : Main@L4.0
Format settings, CABAC : Yes
Format settings, ReFrames : 4 frames
Duration : 3mn 55s
Bit rate : 7 135 Kbps
Width : 1 920 pixels
Height : 1 080 pixels
Display aspect ratio : 16:9
Frame rate : 25.000 fps
Color space : YUV
Chroma subsampling : 4:2:0
Bit depth : 8 bits
Scan type : MBAFF
Bits/(Pixel*Frame) : 0.138
Stream size : 200 MiB (89%)
Color primaries : BT.709-5, BT.1361, IEC 61966-2-4, SMPTE RP177
Transfer characteristics : BT.709-5, BT.1361
Matrix coefficients : BT.709-5, BT.1361, IEC 61966-2-4 709, SMPTE RP177

Audio #1
ID : 2021 (0x7E5)
Format : AC-3
Format/Info : Audio Coding 3
Mode extension : CM (complete main)
Duration : 3mn 55s
Bit rate mode : Constant
Bit rate : 384 Kbps
Channel(s) : 6 channels
Channel positions : Front: L C R, Side: L R, LFE
Sampling rate : 48.0 KHz
Bit depth : 16 bits
Compression mode : Lossy
Delay relative to video : -608ms
Stream size : 10.8 MiB (5%)

Audio #2
ID : 2022 (0x7E6)
Format : AC-3
Format/Info : Audio Coding 3
Mode extension : CM (complete main)
Duration : 3mn 54s
Bit rate mode : Constant
Bit rate : 128 Kbps
Channel(s) : 2 channels
Channel positions : Front: L R
Sampling rate : 48.0 KHz
Bit depth : 16 bits
Compression mode : Lossy
Delay relative to video : -386ms
Stream size : 3.59 MiB (2%)



pb.wtf



Скачать Alizee - A Cause De L'automne через торрент https://pic1.kartinco.top/images/21/7afxnna5ca.jpg Скачать, смотреть онлайн Alizee - A Cause De L бесплантно в хорошем качестве Год выпуска: 2013 Страна: ФранцияЖанр: PopПродолжительность: ... 8.8 10 16
Info! Золотая раздача, скачанное не засчитывается.
Торрент: Зарегистрирован [2013-03-21 20:25] · скачан: 328 раз
Статус: √ проверено
Размер: 226 MB
Как cкачать? Как скачать Alizee - A Cause De L'automne через торрент | UTorrent

28-11-2019 20:33  

Отключить всю рекламу на сайте

    Дорогой пользователь! Огромная просьба, поблагодарите релизера, оцените раздачу и оставьте свои комментарий, если Вы скачали Alizee - A Cause De L'automne через торрент бесплатно!
    Комментировать посты могут только пользователи прошедшие не сложную регистрацию
    Показать сообщения:    

    Alizee - A Cause De L'automne через торрент
    Скачать бесплатно Alizee - A Cause De L'automne
    Alizee - A Cause De L'automne скачать торрент
    Alizee - A Cause De L'automne смотреть онлайн
    Cкачать фильм Alizee - A Cause De L'automne бесплатно
    Alizee - A Cause De L'automne скачать торрент в хорошем качестве
    Alizee - A Cause De L'automne смотреть онлайн бесплатно в хорошем качестве


    Вы не можете начинать темы
    Вы не можете отвечать на сообщения
    Вы не можете редактировать свои сообщения
    Вы не можете удалять свои сообщения
    Вы не можете голосовать в опросах
    Вы не можете прикреплять файлы к сообщениям
    Вы можете скачивать файлы