Ссылка на приватное зеркало нашего сайта всего за 1$. Внимание количество ограничено!!!

2 сезон

iTunes

1 сезон

1

iTunes

iTunes

iTunes

1 сезон

RePack

30

ИГРА 18+

pack

ВАЖНО

!!Акция!!

Alien_RageХит недели

RePack

MK11
pack

Забери бонус

RePack

jed

!!Акция!!

Alien_Rage

RePack

fifa19

RePack

Assassins Creed: Odyssey

RePack

NEED FOR SPEED™ PAYBACK

4 сезон

9 сезон

Бесстыжие 9 сезон

Все сериалы

все сериалы на PB.wtf

RePack

FAR CRY 5
  

Дом в конце улицы / House at the End of the Street (Марк Тондерай) [2012 г., ужасы, триллер, BDRip 720p, Дубляж, лицензия] pb.wtf

Дом в конце улицы через торрент pb.wtf

Размер: 8.38 GB | Добавлен: 7 лет 6 мес. назад | Торрент скачан:229 раз
Скачать  

22-03-2013 09:54 Дом в конце улицы Скачать торрент  



Дом в конце улицы / House at the End of the Street
«Страх живёт по соседству»


Год выпуска: 2012
Страна: США
Жанр: ужасы, триллер,
Продолжительность: 01:41:46
Перевод: Дубляж, Лицензия
Тип релиза: Лицензия
Субтитры: Есть

Режиссер: Марк Тондерай
Продюссер: Питер Блок, Хэл Либерман, Аарон Райдер
Сценарий: Дэвид Лука, Джонатан Мостоу

Бюджет: $10 000 000

Мировой рейтинг IMDB 5.30 (18 302)


В ролях: Дженнифер Лоуренс, Макс Тириот, Элизабет Шу, Джил Беллоуз, Ева Линк, Нолан Фанк, Элли МакДональд, Джордан Хэйес, Криста Бриджес, Джеймс Томас, Анастасия Жаркова, Наталья Грачева, Алексей Мясников, Иван Жарков, Дмитрий Курта,

Описание: Переехав жить в небольшой провинциальный город, Сара и ее дочь еще не догадываются, что вскоре окажутся в эпицентре очень ужасной истории. Когда окажется, что вблизи живет серийный убийца...

Качество: BDRip 720p
Формат: MKV
Видео кодек: H.26x
Аудио кодек: DTS
Видео: 1280x534 (2.35:1), 23.976 fps, 8 535 Kbps (0.521 bit/pixel)
Аудио#1: DTS, 48.0 KHz, 6 ch, 1 510 Kbps, CBR (Russian)
Аудио#2: DTS, 48.0 KHz, 6 ch, 1 510 Kbps, CBR (English)
Субтитры: Russian, English, English, Spanish






Общее
Уникальный идентификатор : 194795518954405343023800707185986869150 (0x928C4096A559ECB6990AAE469535979E)
Полное имя : F:Дом в конце улицы.2012.BDRip.720p..mkv
Формат : Matroska
Версия формата : Version 2
Размер файла : 8,38 Гбайт
Продолжительность : 1 ч. 41 м.
Общий поток : 11,8 Мбит/сек
Название фильма : IRONCLUB
Дата кодирования : UTC 2013-03-21 18:35:49
Программа кодирования : mkvmerge v5.2.0 ('I can't explain') built on Dec 18 2011 18:12:03
Библиотека кодирования : libebml v1.2.3 + libmatroska v1.3.0

Видео
Идентификатор : 1
Формат : AVC
Формат/Информация : Advanced Video Codec
Профиль формата : High@L4.1
Параметр CABAC формата : Да
Параметр ReFrames формата : 12 кадров
Идентификатор кодека : V_MPEG4/ISO/AVC
Продолжительность : 1 ч. 41 м.
Битрейт : 8536 Кбит/сек
Ширина : 1280 пикселей
Высота : 534 пикселя
Соотношение сторон : 2,40:1
Режим частоты кадров : Постоянный
Частота кадров : 23,976 кадра/сек
Цветовое пространство : YUV
Субдискретизация насыщенности : 4:2:0
Битовая глубина : 8 бит
Тип развёртки : Прогрессивная
Бит/(Пиксели*Кадры) : 0.521
Размер потока : 6,07 Гбайт (72%)
Заголовок : House.at.the.End.of.the.Street.2012.720p.BluRay.DD5.1.x264-HiDt
Библиотека кодирования : x264 core 120 r2164 da19765
Настройки программы : cabac=1 / ref=12 / deblock=1:-3:-3 / analyse=0x3:0x113 / me=tesa / subme=11 / psy=1 / psy_rd=0.98:0.00 / mixed_ref=1 / me_range=64 / chroma_me=1 / trellis=2 / 8x8dct=1 / cqm=0 / deadzone=21,11 / fast_pskip=0 / chroma_qp_offset=-2 / threads=12 / sliced_threads=0 / nr=0 / decimate=1 / interlaced=0 / bluray_compat=0 / constrained_intra=0 / bframes=8 / b_pyramid=2 / b_adapt=2 / b_bias=0 / direct=3 / weightb=1 / open_gop=0 / weightp=2 / keyint=250 / keyint_min=25 / scenecut=40 / intra_refresh=0 / rc=crf / mbtree=0 / crf=16.5 / qcomp=0.80 / qpmin=0 / qpmax=69 / qpstep=4 / ip_ratio=1.40 / pb_ratio=1.30 / aq=1:0.70
Язык : English
Default : Да
Forced : Да

Аудио #1
Идентификатор : 2
Формат : DTS
Формат/Информация : Digital Theater Systems
Режим : 16
Параметр Endianness формата : Big
Идентификатор кодека : A_DTS
Продолжительность : 1 ч. 41 м.
Вид битрейта : Постоянный
Битрейт : 1510 Кбит/сек
Каналы : 6 каналов
Расположение каналов : Front: L C R, Side: L R, LFE
Частота : 48,0 КГц
Битовая глубина : 16 бит
Метод сжатия : С потерями
Размер потока : 1,07 Гбайт (13%)
Заголовок : DTS 5.1 @ 1536 kbps - Dub, R5
Язык : Russian
Default : Да
Forced : Да

Аудио #2
Идентификатор : 3
Формат : DTS
Формат/Информация : Digital Theater Systems
Режим : 16
Параметр Endianness формата : Big
Идентификатор кодека : A_DTS
Продолжительность : 1 ч. 41 м.
Вид битрейта : Постоянный
Битрейт : 1509 Кбит/сек
Каналы : 6 каналов
Расположение каналов : Front: L C R, Side: L R, LFE
Частота : 48,0 КГц
Битовая глубина : 24 бит
Метод сжатия : С потерями
Размер потока : 1,07 Гбайт (13%)
Заголовок : DTS 5.1 @ 1536 kbps
Язык : English
Default : Нет
Forced : Нет

Текст #1
Идентификатор : 4
Формат : UTF-8
Идентификатор кодека : S_TEXT/UTF8
Идентификатор кодека/Информация : UTF-8 Plain Text
Язык : Russian
Default : Нет
Forced : Нет

Текст #2
Идентификатор : 5
Формат : UTF-8
Идентификатор кодека : S_TEXT/UTF8
Идентификатор кодека/Информация : UTF-8 Plain Text
Язык : English
Default : Нет
Forced : Нет

Текст #3
Идентификатор : 6
Формат : UTF-8
Идентификатор кодека : S_TEXT/UTF8
Идентификатор кодека/Информация : UTF-8 Plain Text
Заголовок : SDH
Язык : English
Default : Нет
Forced : Нет

Текст #4
Идентификатор : 7
Формат : UTF-8
Идентификатор кодека : S_TEXT/UTF8
Идентификатор кодека/Информация : UTF-8 Plain Text
Язык : Spanish
Default : Нет
Forced : Нет

Меню
00:00:00.000 : en:00:00:00.000
00:04:30.729 : en:00:04:30.729
00:08:55.160 : en:00:08:55.160
00:13:02.949 : en:00:13:02.949
00:17:14.450 : en:00:17:14.450
00:23:05.342 : en:00:23:05.342
00:28:31.752 : en:00:28:31.752
00:35:37.719 : en:00:35:37.719
00:39:06.427 : en:00:39:06.427
00:42:46.772 : en:00:42:46.772
00:46:20.444 : en:00:46:20.444
00:51:48.772 : en:00:51:48.772
00:59:14.342 : en:00:59:14.342
01:03:59.085 : en:01:03:59.085
01:07:26.334 : en:01:07:26.334
01:11:07.972 : en:01:11:07.972
01:15:20.808 : en:01:15:20.808
01:18:41.091 : en:01:18:41.091
01:23:02.978 : en:01:23:02.978
01:26:48.787 : en:01:26:48.787
01:30:13.825 : en:01:30:13.825
01:31:26.731 : en:01:31:26.731
01:35:31.601 : en:01:35:31.601


Дом в конце улицы скачать торрент




pb.wtf



Скачать Дом в конце улицы через торрент http://pic.kartinco.top/images/2/1i49r1kbe4.png Скачать фильм Дом в конце улицы через торрент бесплантно в хорошем качестве Описание: Переехав жить в небольшой провинциальный город, Сара и ее дочь еще не догадываются, что вскоре окажутся в эпицентре очень ужасной ... 8.3 10 8
Info! Золотая раздача, скачанное не засчитывается.
Торрент: Зарегистрирован [2013-03-22 09:54] · скачан: 229 раз
Статус: √ проверено
Размер: 8.38 GB
Как cкачать? Как скачать Дом в конце улицы через торрент | qTorrent

% Раздел Тема Автор DL S | L
Фильмы (Blu-ray, BD-Remux, HDDVD) [ 21.43 GB ] Дом в конце улицы / House at the End of the Street [2012 BD-Remux ] Seedtank Скачать
1 | 0
Фильмы 2011 [ 2.18 GB ] Дом в конце улицы / House at the End of the Street [2011 BDRip лицензия] + оригинал Ворон Скачать
1 | 0
Фильмы 2012 [ 1.45 GB ] Дом в конце улицы / House at the End of the Street [2012 HDRip лицензия] кэп Скачать
1 | 0
Фильмы 2011 [ 1.46 GB ] Дом в конце улицы / House at the End of the Street [2011 BDRip-AVC] DUB Rzhavec Скачать
1 | 0
Фильмы 2012 [ 744 MB ] Дом в конце улицы / House at the End of the Street [2012 HDRip] Dub Oдин 777 Скачать
1 | 0
Фильмы (DVD фильмы) [ 5.85 GB ] Дом в конце улицы / House at the End of the Street [2012 DVD9] R5 voovaz Скачать
1 | 0

28-11-2019 20:33  

Отключить всю рекламу на сайте

22-03-2013 18:26 Дом в конце улицы Скачать торрент  

скорости господа, осталось 5 %pb.wtf



23-03-2013 07:02 Дом в конце улицы Скачать торрент  

Лоуренс. Надо посмотреть pb.wtf



    Дорогой пользователь! Огромная просьба, поблагодарите релизера, оцените раздачу и оставьте свои комментарий, если Вы скачали Дом в конце улицы через торрент бесплатно! Внесите свою лепту в развитие PiratBit!
    Комментировать посты могут только пользователи прошедшие не сложную регистрацию
    Показать сообщения:    

    Дом в конце улицы через торрент
    Скачать бесплатно Дом в конце улицы
    Дом в конце улицы скачать торрент
    Дом в конце улицы смотреть онлайн
    Cкачать фильм Дом в конце улицы бесплатно
    Дом в конце улицы скачать торрент в хорошем качестве
    Дом в конце улицы смотреть онлайн бесплатно в хорошем качестве


    Вы не можете начинать темы
    Вы не можете отвечать на сообщения
    Вы не можете редактировать свои сообщения
    Вы не можете удалять свои сообщения
    Вы не можете голосовать в опросах
    Вы не можете прикреплять файлы к сообщениям
    Вы можете скачивать файлы