MEGA SALE -50% FORZA HORIZON 4 ULTIMATE+ВСЕ DLC+ОНЛАЙН всего за 599р. 299 руб. (супер цена). Внимание количество ограничено!!!

iTunes

1+1

iTunes

мы

iTunes

1

iTunes

Чернобыль

iTunes

Ральф против интернета

Лицензия

ПШазам

Лицензия

Игра престолов

Лицензия

30
pack

ВАЖНО

!!Акция!!

Alien_RageХит недели

RePack

Resident Evil 21

ИГРА 18+

pack

RePack

Metro:Exodus

!!Акция!!

Alien_Rage

RePack

fifa19

RePack

Assassins Creed: Odyssey

RePack

NEED FOR SPEED™ PAYBACK

3 сезон

9 сезон

Бесстыжие 9 сезон

Все сериалы

все сериалы на PB.wtf

RePack

FAR CRY 5
Ребята, катастрофически не хватает 7730р. для оплаты серверов за АВГУСТ (всвязи с блокировками трафик упал в 3 раза), 1-2р., выручайте.
  

Святые из бундока 2: День всех святых / Boondock Saints II: All Saints Day, The (Трой Даффи) [2009 г., боевик, триллер, драма, криминал, BDRip, MVO] pb.wtf

Святые из бундока 2: День всех святых через торрент pb.wtf

Размер: 2.18 GB | Добавлен: 1 год 5 мес. назад | Торрент скачан:30 раз
Скачать  

04-03-2010 18:59 Святые из бундока 2: День всех святых Скачать торрент  

Святые из Бундока 2: День всех святых / The Boondock Saints II: All Saints Day

Год выпуска: 2009
Страна: США
Жанр: боевик, триллер, драма, комедия, криминал

Продолжительность: 01:57:30
Перевод: Профессиональный (многоголосый)
Субтитры: Русские, английские (внешние)
Режиссер: Трой Даффи
В ролях:

Шон Патрик Флэнери (Connor MacManus), Норман Ридус (Murphy MacManus), Билли Коннолли (Poppa), Клифтон Коллинз мл. (Romeo), Джули Бенц (Special Agent Eunice Bloom), Боб Марли (Greenly), Брайан Махони (Duffy), Дэвид Ферри (Dolly), Дэвид Делла Рокко (Rocco), Питер Фонда (The Roman), Дэниэл ДеСанто (Crew Cut), Герард Паркес (Doc)
Описание:
Последние 8 лет братья жили вместе с отцом на ферме в глубинке Ирландии. Однажды их дядя рассказывает им о слухах, что они причастны к убийству католического священника Бостона. Парни возвращаются в Бостон, чтобы очистить свою испорченную репутацию, и найти людей, подставивших их.
Рейтинг:

MPAA: R - Лицам до 17 лет обязательно присутствие взрослого
Качество: BDRip
Формат: AVI
Видео: XviD, 720x304 (2.35:1), 1774 kbps, 23,976 fps, 0,338 bpp
Аудио №1: русский / AC3 / 5.1 / 48 kHz / 384 kbps /
Аудио №2: английский / AC3 / 5.1 / 48 kHz / 384 kbps /
General
Complete name : H:\Svyatie.Iz.Bundoka.2.Den.Vseh.Svyatih.2009.DUAL.BDRip.XviD.AC3.-HQ-ViDEO\Svyatie.Iz.Bundoka.2.Den.Vseh.Svyatih.2009.DUAL.BDRip.XviD.AC3.-HQ-ViDEO.avi
Format : AVI
Format/Info : Audio Video Interleave
File size : 2.18 GiB
Duration : 1 h 57 min
Overall bit rate : 2 659 kb/s
Writing application : VirtualDubModRus 1.5.10.2 (build 2542/release)
Writing library : VirtualDubMod build 2542/release

Video
ID : 0
Format : MPEG-4 Visual
Format profile : Advanced Simple@L5
Format settings, BVOP : 1
Format settings, QPel : No
Format settings, GMC : No warppoints
Format settings, Matrix : Custom
Codec ID : XVID
Codec ID/Hint : XviD
Duration : 1 h 57 min
Bit rate : 1 775 kb/s
Width : 720 pixels
Height : 304 pixels
Display aspect ratio : 2.35:1
Frame rate : 23.976 (23976/1000) FPS
Color space : YUV
Chroma subsampling : 4:2:0
Bit depth : 8 bits
Scan type : Progressive
Compression mode : Lossy
Bits/(Pixel*Frame) : 0.338
Stream size : 1.46 GiB (67%)
Writing library : XviD 1.2.1 (UTC 2008-12-04)

Audio #1
ID : 1
Format : AC-3
Format/Info : Audio Coding 3
Mode extension : CM (complete main)
Format settings, Endianness : Big
Codec ID : 2000
Duration : 1 h 57 min
Bit rate mode : Constant
Bit rate : 384 kb/s
Channel(s) : 6 channels
Channel positions : Front: L C R, Side: L R, LFE
Sampling rate : 48.0 kHz
Frame rate : 31.250 FPS (1536 spf)
Compression mode : Lossy
Stream size : 323 MiB (14%)
Alignment : Split accross interleaves

Audio #2
ID : 2
Format : AC-3
Format/Info : Audio Coding 3
Mode extension : CM (complete main)
Format settings, Endianness : Big
Codec ID : 2000
Duration : 1 h 57 min
Bit rate mode : Constant
Bit rate : 384 kb/s
Channel(s) : 6 channels
Channel positions : Front: L C R, Side: L R, LFE
Sampling rate : 48.0 kHz
Frame rate : 31.250 FPS (1536 spf)
Compression mode : Lossy
Stream size : 323 MiB (14%)
Alignment : Split accross interleaves
pb.wtf



Скачать Святые из бундока 2: День всех святых через торрент http://i5.imageban.ru/out/2018/04/11/d7a6a36ebe4d9b0d6c1eca1fb8f6694e.jpg Скачать фильм Святые из бундока 2: День всех святых через торрент бесплантно в хорошем качестве Описание: Последние 8 лет братья жили вместе с отцом на ферме в глубинке Ирландии. Однажды их дядя рассказывает им о слухах, что они ... 10 10 3
Торрент: Зарегистрирован [2018-04-11 17:18] · скачан: 30 раз
Статус: √ проверено
Размер: 2.18 GB
Как cкачать? Как скачать Святые из бундока 2: День всех святых через торрент | qTorrent

% Раздел Тема Автор DL S | L
Фильмы (HD 720p, 1080p) (48-60 fps) [ 3.82 GB ] Святые из Бундока 2: День всех святых / The Boondock Saints II: All Saints Day [2009 BDRip 720p многоголосый ] slaventi-69 Скачать
1 | 0
Фильмы 2009 [ 1.45 GB ] Святые из бундока 2: День всех святых / The Boondock Saints II: All Saints Day [2009 BDRip-AVC MVO] stalonе Скачать
1 | 0


>> Регистрируемся здесь <<






Отзывы и комментарии о схеме читаем и пишем здесь: ---> Отзывы и комментарии о схеме

Новые благодарочки в телеграм довольных пользователей:
скриншот   скриншот   скриншот   скриншот   скриншот

04-03-2010 21:01 Святые из бундока 2: День всех святых Скачать торрент  

А нет ни у кого случайно этого фильма в переводе гоблина ? =)pb.wtf



    Дорогой пользователь! Огромная просьба, поблагодарите релизера, оцените раздачу и оставьте свои комментарий, если Вы скачали Святые из бундока 2: День всех святых через торрент бесплатно! Внесите свою лепту в развитие PiratBit!
    Комментировать посты могут только пользователи прошедшие не сложную регистрацию
    Показать сообщения:    

    Святые из бундока 2: День всех святых через торрент
    Скачать бесплатно Святые из бундока 2: День всех святых
    Святые из бундока 2: День всех святых скачать торрент
    Святые из бундока 2: День всех святых смотреть онлайн
    Cкачать фильм Святые из бундока 2: День всех святых бесплатно
    Святые из бундока 2: День всех святых скачать торрент в хорошем качестве
    Святые из бундока 2: День всех святых смотреть онлайн бесплатно в хорошем качестве


    Вы не можете начинать темы
    Вы не можете отвечать на сообщения
    Вы не можете редактировать свои сообщения
    Вы не можете удалять свои сообщения
    Вы не можете голосовать в опросах
    Вы не можете прикреплять файлы к сообщениям
    Вы можете скачивать файлы