1 сезон

3 сезон

iTunes

1

Line

MVO

iTunes

13

1 сезон

RePack

30

Deluxe

pack

Лицензия

ВАЖНО

ИГРА 18+

pack

RePack

MK11

RePack

jed

RePack

fifa19

RePack

RDR2

RePack

NEED FOR SPEED™ PAYBACK

4 сезон

9 сезон

Бесстыжие 9 сезон

Все сериалы

все сериалы на PB.wtf

RePack

FAR CRY 5

Anonymous, доброй ночи, мы катастрофически не успеваем собрать деньги на оплату серверов, помогите нам пожалуйста 5,10,15р., для нас важна любая помощь . В качестве благодарности мы отключим Вам всю рекламу на сайте (укажите свой ник в строку Ваше имя)!

×
  
Magnet ссылка

Агент Хамилтон: Похищенная / Hamilton 2: Men inte om det galler din dotter (Тобиас Фальк / Tobias Falk) [2012, боевик, триллер, драма, DVD5] R5 pb.wtf

Агент Хамилтон: Похищенная через торрент pb.wtf

Размер: 4.05 GB | Добавлен: 8 лет 4 мес. назад | Торрент скачан:33 раза
Скачать  

22-03-2013 22:30 Агент Хамилтон: Похищенная Скачать торрент  


Агент Хамилтон: Похищенная / Hamilton 2: Men inte om det galler din dotter
Страна: Швеция
Студия: Kanzaman S.A., Pampas Produktion, TV4 Sweden
Жанр: боевик, триллер, драма
Год выпуска: 2012
Мировая премьера: 7 сентября 2012
Дата выхода DVD: 25 марта 2013
Продолжительность: 01:26:23
Перевод: Профессиональный (многоголосый закадровый) [Лицензия]
Cубтитры: нет
Оригинальная аудиодорожка: нет
Режиссер: Тобиас Фальк / Tobias Falk
В ролях: Микаэл Персбрандт, Стивен Вэддингтон, Джон Лайт, Frida Hallgren, Дэвид Ринтул, Кэл Макэнинк, Питер Эггерс, Милинд Соман, Найджел Уитми, Саба Мубарак
Описание: Хамилтон — специальный агент, призванный решать самые невыполнимые задачи. Он всегда защищал интересы своей страны. Но когда его крестная дочь оказывается похищенной представителями ближневосточного нефтяного магната и правительство не предпринимает никаких шагов к ее освобождению, Хамилтон решает вернуть ее домой своими силами. Вместе с друзьями ему предстоит вступить в схватку с вооруженной до зубов армией и взять штурмом крепость в пустыне. Оружие уже заряжено, а Агент Хамилтон никогда не терпит поражений.
Бонусы: нет

Релиз группы:
Качество: DVD5 R5
Формат: DVD-Video
Видео кодек: MPEG2
Аудио кодек: AC3
Видео: PAL 16:9 (720x576(0.579)) MPEG Video, 25,000 кадр/сек, 6000 Кбит/сек
Аудио: Russian (Dolby AC3, 6 ch) 448 Кбит/сек, 48,0 КГц



Title: Agent.Hamilton.2.Poxishhennaya.2012.DVD5
Size: 4.05 Gb ( 4 245 372,00 KBytes ) - DVD-5
Enabled regions: 1, 2, 3, 4, 5, 6, 7, 8

VTS_01 :
Play Length: 00:00:10
Video: PAL 4:3 (720x576) VBR
Audio:
Russian (Dolby AC3, 2 ch)

VTS_02 :
Play Length: 01:26:23
Video: PAL 16:9 (720x576) VBR, Auto Letterboxed
Audio:
Russian (Dolby AC3, 6 ch)

* Menus Information *

VIDEO_TS Menu
Video:
PAL 4:3 (720x576) VBR
English Language Unit :
Title Menu

VTS_01 Menu
Video:
PAL 16:9 (720x576) VBR
Auto Letterboxed
Audio:
Not specified (Dolby AC3, 2 ch)
English Language Unit :
Root Menu

VTS_02 Menu
Video:
PAL 4:3 (720x576) VBR
English Language Unit :
Root Menu
Общее
Полное имя : J:Новинки 2013Agent.Hamilton.2.Poxishhennaya.2012.DVD5VIDEO_TSVTS_02_2.VOB
Формат : MPEG-PS
Размер файла : 1024 Мбайт
Продолжительность : 21 м.
Общий поток : 6548 Кбит/сек

Видео
Идентификатор : 224 (0xE0)
Формат : MPEG Video
Версия формата : Version 2
Профиль формата : Main@Main
Параметр BVOP формата : Да
Параметр матрицы формата : По умолчанию
Параметр GOP формата : M=3, N=12
Продолжительность : 21 м.
Битрейт : 6000 Кбит/сек
Ширина : 720 пикселей
Высота : 576 пикселей
Соотношение сторон : 16:9
Частота кадров : 25,000 кадров/сек
Стандарт вещания : PAL
Цветовое пространство : YUV
Субдискретизация насыщенности : 4:2:0
Битовая глубина : 8 бит
Тип развёртки : Чересстрочная
Порядок развёртки : Нижнее поле первое
Метод сжатия : С потерями
Бит/(Пиксели*Кадры) : 0.579
Размер потока : 933 Мбайт (91%)

Аудио
Идентификатор : 189 (0xBD)-128 (0x80)
Формат : AC-3
Формат/Информация : Audio Coding 3
Расширение режима : CM (complete main)
Параметр Endianness формата : Big
Режим смешивания : DVD-Video
Продолжительность : 21 м.
Вид битрейта : Постоянный
Битрейт : 448 Кбит/сек
Каналы : 6 каналов
Расположение каналов : Front: L C R, Side: L R, LFE
Частота : 48,0 КГц
Битовая глубина : 16 бит
Метод сжатия : С потерями
Задержка видео : -560 мс.
Размер потока : 70,1 Мбайт (7%)










pb.wtf



Скачать Агент Хамилтон: Похищенная через торрент http://s61.radikal.ru/i172/1303/55/24158a5fd922.jpg Скачать фильм Агент Хамилтон: Похищенная через торрент бесплантно в хорошем качестве Описание: Хамилтон — специальный агент, призванный решать самые невыполнимые задачи. Он всегда защищал интересы своей страны. Но когда его ... 8.5 10 4
Info! Золотая раздача, скачанное не засчитывается.
Торрент: Зарегистрирован [2013-03-22 22:30] · скачан: 33 раз
Статус: √ проверено
Размер: 4.05 GB
Как cкачать? Как скачать Агент Хамилтон: Похищенная через торрент | UTorrent

28-11-2019 20:33  

Отключить всю рекламу на сайте

    Дорогой пользователь! Огромная просьба, поблагодарите релизера, оцените раздачу и оставьте свои комментарий, если Вы скачали Агент Хамилтон: Похищенная через торрент бесплатно! Внесите свою лепту в развитие PiratBit!
    Комментировать посты могут только пользователи прошедшие не сложную регистрацию
    Показать сообщения:    

    Агент Хамилтон: Похищенная через торрент
    Скачать бесплатно Агент Хамилтон: Похищенная
    Агент Хамилтон: Похищенная скачать торрент
    Агент Хамилтон: Похищенная смотреть онлайн
    Cкачать фильм Агент Хамилтон: Похищенная бесплатно
    Агент Хамилтон: Похищенная скачать торрент в хорошем качестве
    Агент Хамилтон: Похищенная смотреть онлайн бесплатно в хорошем качестве


    Вы не можете начинать темы
    Вы не можете отвечать на сообщения
    Вы не можете редактировать свои сообщения
    Вы не можете удалять свои сообщения
    Вы не можете голосовать в опросах
    Вы не можете прикреплять файлы к сообщениям
    Вы можете скачивать файлы