1 сезон

3 сезон

iTunes

1

Line

MVO

iTunes

13

1 сезон

RePack

30

Deluxe

pack

Лицензия

ВАЖНО

ИГРА 18+

pack

RePack

MK11

RePack

jed

RePack

fifa19

RePack

RDR2

RePack

NEED FOR SPEED™ PAYBACK

4 сезон

9 сезон

Бесстыжие 9 сезон

Все сериалы

все сериалы на PB.wtf

RePack

FAR CRY 5

Anonymous, доброй ночи, мы катастрофически не успеваем собрать деньги на оплату серверов, помогите нам пожалуйста 5,10,15р., для нас важна любая помощь . В качестве благодарности мы отключим Вам всю рекламу на сайте (укажите свой ник в строку Ваше имя)!

×
  
Magnet ссылка

Кровавый Санта / Sint (Дик Мас / Dick Maas) [2010, ужасы, DVD9] R5 pb.wtf

Кровавый Санта через торрент pb.wtf

Размер: 4.83 GB | Добавлен: 8 лет 4 мес. назад | Торрент скачан:20 раз
Скачать  

23-03-2013 09:06 Кровавый Санта Скачать торрент  


Кровавый Санта / Sint
«В ночь полнолуния он не пощадит никого!»
Страна: Нидерланды
Студия: Parachute Pictures, TDMP
Жанр: ужасы
Год выпуска: 2010
Мировая премьера: 31 октября 2010
Российская премьера: 29 ноября 2012
Дата выхода DVD: 28 февраля 2013
Продолжительность: 01:24:29
Перевод: Профессиональный (дублированный) [Лицензия]
Cубтитры: русские
Оригинальная аудиодорожка: нидерландский
Режиссер: Дик Мас / Dick Maas
В ролях: Эгберт Ян Вебер, Берт Луппес, Каро Ленссен, Хуб Стапель, Эша Танихату, Джим Деддес, Джои ван дер Вельден, Джаап Спийкерс, Бен Рамакерс, Кеес Бут
Описание: Средние века. Епископ Синтерклаас (он же Святой Николас - Sinterklaas по-голландски, Санта Клаус по-американски), вместе с бандой разбойников рыщет по стране, грабит и убивает, пока жителям одной из деревень не удается поймать их, загнать на корабль и сжечь. Перед смертью Санта клянется отомстить. И с тех пор один раз в 36 лет, в ночь полнолуния с 5 на 6 декабря, он и его приспешники воскресают из мертвых, чтобы осуществить свою страшную месть.
Наши дни. Мистически красивый, заснеженный Амстердам. 5 декабря. Отставной детектив Гурт, за 36 лет до этого ставший свидетелем смерти всей своей семьи, предсказывает, что Кровавый Санта появится именно в этом году. Его принимают за умалишенного, и никто Гурту, конечно, не верит. А в серии кровавых убийств, прокатившихся по городу, обвиняют 17-летнего Франка. Все его приятели мертвы, и он - главный подозреваемый. Франк и Гурт объединяются, чтобы вступить в схватку с монстром на светящемся белом коне...

Бонусы: Трейлер, анонсы

Качество: DVD9 R5
Формат: DVD-Video
Видео кодек: MPEG2
Аудио кодек: AC3
Видео: PAL 16:9 (720x576(0.648)) MPEG Video, 25,000 кадр/сек, 6722 Кбит/сек
Аудио #1: Russian (Dolby AC3, 6 ch) 448 Кбит/сек, 48,0 КГц
Аудио #2: Nederlands (Dolby AC3, 6 ch) 448 Кбит/сек, 48,0 КГц



Title: Krovavyj.Santa.2010.DVD9
Size: 4.83 Gb ( 5 062 474,00 KBytes ) - DVD-9
Enabled regions: 1, 2, 3, 4, 5, 6, 7, 8

VTS_01 :
Play Length: 00:00:10
Video: PAL 16:9 (720x576) VBR, Auto Letterboxed

VTS_02 :
Play Length: 00:00:07
Video: PAL 16:9 (720x576) VBR, Auto Letterboxed
Audio:
English (Dolby AC3, 6 ch)

VTS_03 :
Play Length: 00:02:02
Video: PAL 16:9 (720x576) VBR, Auto Letterboxed
Audio:
Russian (Dolby AC3, 2 ch)
Nederlands (Dolby AC3, 2 ch)

VTS_04 :
Play Length: 00:01:25
Video: PAL 16:9 (720x576) VBR, Auto Letterboxed
Audio:
Russian (Dolby AC3, 2 ch)
English (Dolby AC3, 2 ch)

VTS_05 :
Play Length: 00:01:48
Video: PAL 16:9 (720x576) VBR, Auto Letterboxed
Audio:
Russian (Dolby AC3, 2 ch)
Espanol (Dolby AC3, 2 ch)

VTS_06 :
Play Length: 01:24:29
Video: PAL 16:9 (720x576) VBR, Auto Pan&Scan, Auto Letterboxed
Audio:
Russian (Dolby AC3, 6 ch)
Nederlands (Dolby AC3, 6 ch)
Subtitles:
Russian

* Menus Information *

VIDEO_TS Menu
Video:
PAL 16:9 (720x576) VBR
Auto Pan&Scan, Auto Letterboxed
English Language Unit :
Title Menu

VTS_01 Menu
Video:
PAL 16:9 (720x576) VBR
Auto Letterboxed
Audio:
Not specified (Dolby AC3, 2 ch)
English Language Unit :
Root Menu

VTS_02 Menu
Video:
PAL 4:3 (720x576) VBR
English Language Unit :
Root Menu

VTS_03 Menu
Video:
PAL 4:3 (720x576) VBR
English Language Unit :
Root Menu

VTS_04 Menu
Video:
PAL 4:3 (720x576) VBR
English Language Unit :
Root Menu

VTS_05 Menu
Video:
PAL 4:3 (720x576) VBR
English Language Unit :
Root Menu

VTS_06 Menu
Video:
PAL 4:3 (720x576) VBR
English Language Unit :
Root Menu
Общее
Полное имя : J:Новинки 2013Krovavyj.Santa.2010.DVD9VIDEO_TSVTS_06_1.VOB
Формат : MPEG-PS
Размер файла : 1024 Мбайт
Продолжительность : 18 м.
Режим общего битрейта : Переменный
Общий поток : 7773 Кбит/сек

Видео
Идентификатор : 224 (0xE0)
Формат : MPEG Video
Версия формата : Version 2
Профиль формата : Main@Main
Параметр BVOP формата : Да
Параметр матрицы формата : По умолчанию
Параметр GOP формата : M=3, N=12
Продолжительность : 18 м.
Вид битрейта : Переменный
Битрейт : 6722 Кбит/сек
Максимальный битрейт : 8500 Кбит/сек
Ширина : 720 пикселей
Высота : 576 пикселей
Соотношение сторон : 16:9
Частота кадров : 25,000 кадров/сек
Стандарт вещания : PAL
Цветовое пространство : YUV
Субдискретизация насыщенности : 4:2:0
Битовая глубина : 8 бит
Тип развёртки : Чересстрочная
Порядок развёртки : Верхнее поле первое
Метод сжатия : С потерями
Бит/(Пиксели*Кадры) : 0.648
Размер потока : 886 Мбайт (86%)

Аудио #1
Идентификатор : 189 (0xBD)-128 (0x80)
Формат : AC-3
Формат/Информация : Audio Coding 3
Расширение режима : CM (complete main)
Параметр Endianness формата : Big
Режим смешивания : DVD-Video
Продолжительность : 18 м.
Вид битрейта : Постоянный
Битрейт : 448 Кбит/сек
Каналы : 6 каналов
Расположение каналов : Front: L C R, Side: L R, LFE
Частота : 48,0 КГц
Битовая глубина : 16 бит
Метод сжатия : С потерями
Задержка видео : -80 мс.
Размер потока : 59,0 Мбайт (6%)

Аудио #2
Идентификатор : 189 (0xBD)-129 (0x81)
Формат : AC-3
Формат/Информация : Audio Coding 3
Расширение режима : CM (complete main)
Параметр Endianness формата : Big
Режим смешивания : DVD-Video
Продолжительность : 18 м.
Вид битрейта : Постоянный
Битрейт : 448 Кбит/сек
Каналы : 6 каналов
Расположение каналов : Front: L C R, Side: L R, LFE
Частота : 48,0 КГц
Битовая глубина : 16 бит
Метод сжатия : С потерями
Задержка видео : -80 мс.
Размер потока : 59,0 Мбайт (6%)

Текст
Идентификатор : 189 (0xBD)-32 (0x20)
Формат : RLE
Формат/Информация : Run-length encoding
Режим смешивания : DVD-Video




pb.wtf



Скачать Кровавый Санта через торрент http://s019.radikal.ru/i609/1303/3a/b54c734b7855.jpg Скачать фильм Кровавый Санта через торрент бесплантно в хорошем качестве Описание: Средние века. Епископ Синтерклаас (он же Святой Николас - Sinterklaas по-голландски, Санта Клаус по-американски), вместе с бандой ... 10 10 3
Info! Золотая раздача, скачанное не засчитывается.
Торрент: Зарегистрирован [2013-03-23 09:06] · скачан: 20 раз
Статус: √ проверено
Размер: 4.83 GB
Как cкачать? Как скачать Кровавый Санта через торрент | UTorrent

28-11-2019 20:33  

Отключить всю рекламу на сайте

    Дорогой пользователь! Огромная просьба, поблагодарите релизера, оцените раздачу и оставьте свои комментарий, если Вы скачали Кровавый Санта через торрент бесплатно! Внесите свою лепту в развитие PiratBit!
    Комментировать посты могут только пользователи прошедшие не сложную регистрацию
    Показать сообщения:    

    Кровавый Санта через торрент
    Скачать бесплатно Кровавый Санта
    Кровавый Санта скачать торрент
    Кровавый Санта смотреть онлайн
    Cкачать фильм Кровавый Санта бесплатно
    Кровавый Санта скачать торрент в хорошем качестве
    Кровавый Санта смотреть онлайн бесплатно в хорошем качестве


    Вы не можете начинать темы
    Вы не можете отвечать на сообщения
    Вы не можете редактировать свои сообщения
    Вы не можете удалять свои сообщения
    Вы не можете голосовать в опросах
    Вы не можете прикреплять файлы к сообщениям
    Вы можете скачивать файлы