Anonymous, доброй ночи, присоединяйтесь к нам в Telegram!, здесь всегда актуальный адрес сайта, оперативная поддержка и многое другое!

>

5.6

iTunes

7.4

MVO

5.7

MVO

1

7.7

1 сезон

6.8

iTunes

7.3

1 сезон

13

6.7

1 сезон

8.3

RePack

30

ULTIMATE

pack

9.9

Лицензия

ВАЖНО

ИГРА 18+

pack

7.3

RePack

MK11

7.7

RePack

jed

7.8

RePack

fifa19

8.5

RePack

RDR2

RePack

NEED FOR SPEED™ PAYBACK

4 сезон

9 сезон

Бесстыжие 9 сезон

Все сериалы

все сериалы на PB.wtf

RePack

FAR CRY 5

Anonymous, доброй ночи, мы катастрофически не успеваем собрать деньги на оплату серверов, помогите нам пожалуйста 5,10,15р., для нас важна любая помощь . В качестве благодарности мы отключим Вам всю рекламу на сайте (укажите свой ник в строку Ваше имя)!

×
  
Magnet ссылка

Интерны 1-7 сезоны/ 1-140 серий из 140(Максим Пежемский, Заур Болотаев, Милан Килибарда) [2010-2012 г., комедия, DVDRip, HQSATRip, Оригинал] pb.wtf

Интерны 1-7 сезоны через торрент pb.wtf

Размер: 37.67 GB | Добавлен: 8 лет 8 мес. назад | Торрент скачан:995 раз
Смотреть онлайн Интерны 1-7 сезоны | Скачать    Ребята, помогите собрать деньги на оплату серверов!!!

11-01-2013 11:28 Интерны 1-7 сезоны Скачать торрент  

Год выпуска: 2010-2012
Страна: Россия
Жанр: Комедия
Продолжительность: Серия ~00:24:00
Перевод: Оригинал

Режиссер
Максим Пежемский, Заур Болотаев, Милан Килибарда
В ролях
Иван Охлобыстин, Светлана Камынина, Вадим Демчог, Светлана Пермякова, Кристина Асмус, Илья Глинников, Александр Ильин мл., Дмитрий Шаракоис, Один Ланд Байрон

Описание:
Жизнь обычной многопрофильной больницы - сплошная рутина. Ненормированный рабочий день, тяжелая, неблагодарная работа, а также инопланетяне, электрики, спивающийся венеролог, озабоченная медсестра, больной-эксгибиционист, ручная крыса, четыре интерна, которые все время расстраивают своего руководителя... Как Иван Охлобыстин в лице доктора Быкова справится со всей этой суетой?
Все сезоны в HQSATRip будут заменяться на DVDRip по мере их появления в сети!22.01.2013 добавлен документальный фильм "Интерны. История болезни. Перекачайте файл."1-5 сезоны DVDRIP
6-7 сезоны HQSATRIP
Название: Интерны. История болезни
Год выпуска: 2012
Жанр: Документальный

Описание: Зрители смеются, однако героям сериала не до смеха - в больнице становиться по настоящему жарко. Молодые неопытные врачи постоянно попадают в комические ситуации, а их руководитель, заведующий терапией, доктор Быков вместо того чтобы научить подшичивает над ними. Так почему же так триумфально шествует по России, казалось бы на первый взгляд, обычный сериал о врачах. Так как же снимали интернов, репортажи со съемочной площадки, интервью с актерами, детали, которые остались за кадром и ответ на главный вопрос: в чем же успех проекта смотрите в День независимости России на телеканале ТНТ.

Режиссер Максим Пежемский, Заур Болотаев
В ролях Иван Охлобыстин, Александр Ильин, Дмитрий Шаракоис, Илья Глинников, Вадим Демчог, Светлана Пермякова, Кристина Асмус

Продолжительность: 00:48:56
Перевод: Оригинальный

Формат: MPG
Видеокодек: MPEG2
Битрейт видео: 2336 Кбит/с
Размер кадра: 704 х 576
Качество видео: SATRip
Аудиокодек: MP2, 2 ch
Битрейт аудио: 192 Кбит/с
Формат : MPEG-PS
Размер файла : 903 Мбайт
Продолжительность : 48 м.
Режим общего битрейта : Переменный
Общий поток : 2579 Кбит/сек
Библиотека кодирования : (c) 1998-2011 Womble Multimedia, Inc. / MPEG Video Wizard DVD 5.0.1.100 (03/2011) / Dec 15 2011

Видео
Идентификатор : 224 (0xE0)
Формат : MPEG Video
Версия формата : Version 2
Профиль формата : Main@Main
Параметр BVOP формата : Да
Параметр матрицы формата : Выборочная
Продолжительность : 48 м.
Вид битрейта : Переменный
Битрейт : 2336 Кбит/сек
Максимальный битрейт : 15,0 Мбит/сек
Ширина : 704 пикселя
Высота : 576 пикселей
Соотношение сторон : 4:3
Частота кадров : 25,000 кадров/сек
Стандарт вещания : PAL
Цветовое пространство : YUV
Субдискретизация насыщенности : 4:2:0
Битовая глубина : 8 бит
Метод сжатия : С потерями
Бит/(Пиксели*Кадры) : 0.230
Размер потока : 818 Мбайт (91%)
Библиотека кодирования : (c) 1998-2011 Womble Multimedia, Inc. / MPEG Video Wizard DVD 5.0.1.100 (03/2011) / Dec 15 2011

Аудио
Идентификатор : 192 (0xC0)
Формат : MPEG Audio
Версия формата : Version 1
Профиль формата : Layer 2
Расширение режима : Intensity Stereo + MS Stereo
Продолжительность : 48 м.
Вид битрейта : Постоянный
Битрейт : 192 Кбит/сек
Каналы : 1 канал
Частота : 48,0 КГц
Метод сжатия : С потерями
Размер потока : 67,2 Мбайт (7%)
1. Who is mr. Быков?
Охлобыстин о своем персонаже: "Я больше не играю дичь. Доктор Быков логичен, выверен, упорядочен, понятен..."

2. Гранж и шутеры спасают доктора Быкова от пьянства!
Видеоблог Охлобыстина: "Быков слушает Нирвану и играет в STALKER и он верен своей любви"

3. Охлобыстин: "Всем спасибо! Все - супер!"
Охлобыстин о съемочной бригаде: "Процесс съемок сериала получился азартный. Ребята просто супер все".

4. Как снимали Интернов
Как снимали фотосесиию для рекламы "Интернов". Видеоблоги сериала.

5. Быков – нежный душегуб!
Иван Охлобыстин рассказывает о развитии образа и характера своего героя Быкова в Интернах

6. Охлобыстин о своих друзья волках и татуировках
Почему Иван Охлобыстин дружит с байкерами и не мешают ли ему татуировки?

7. У Вари ноги врастопырку!
Кристина Асмус рассказывает о прошлом и будущем своей героини Вари Черноус. О романе с Романенко, об отношении к мужчинам и медицине.

8. Я искренняя, чистая, наивная и хорошенькая очень!
Кристина Асмус рассказывает о своем характере, отношении к профессии и планах на будущее.

9. Русский человек не хочет ржать!
Who is doctor Купитман? Интервью с доктором Купитманом, актер Вадим Демчог.

10. Держите свой низ в чистоте!
Вадим Демчог рассказывает о маленьких тайнах доктора Купитмана: характерных жестах, фразах, характере.

11. Купитману нужен драйв!
Вадим Демчог рассказывает, от чего тоскует, любит и шалит его герой, Купитман.

12. Венеролог-ловелас – жрец Венеры!
Вадим Демчог рассказывает о слабостях и радостях своего героя, Купитмана.

13. Мы в жизни дружим… очень.
Уникальные кадры со съемочной площадки Интернов. А также интервью Вари о процессе съемки, казусах и особенностях.

14. Охлобыстин о нетрадиционной медицине.
Иван Охлобыстин рассказывает о том, что сахарная конфетка – это хорошо, но таблетка – все-таки необходима.

15. Охлобыстин: Мой папа – военный хирург.
Иван Охлобыстин о сценаристах Интернах, своем папе военном хирурге и отношении к врачам.

16. Глеб - сволочь, но обаятельная.
Илья Глинников пытается проникнуть в суть характера Глеба Романенко и понять, каков смысл его жизни и кто его заставил спасать жизни других людей.

17. Лобанов - дурак, курит табак.
Александр Ильин рассказывает о своей роли в сериале Интерны. Чем Лобанов похож на него и почему он всегда попадает в идиотские ситуации.

18. Лобанов, как японец, мыслит иероглифами.
Александр Ильин рассказывает про особенности личности Семена Семеновича Лобанова.

19. Очень сильно красивая главврач!
Светлана Камынина рассказывает о характере ее персонажа Анастасии Кисегач.

20. Быков меня ненавидит больше всех!
Илья Глинников о взаимоотношениях Быкова и Романенко и о любимой мамочке.

21. За кулисами Интернов: здесь появился Быков M.D.!
Иван Охлобыстин проводит экскурсию по съемочной площадке сериала «Интерны», раскрывая всякие секретики и ноу-хау.

22. Люба и сексуальные фантазии на тему «медсестра».
Светлана Пермякова, исполнительница роли, медсестры Любы в сериале «Интерны» рассуждает о ролевых играх, мужской красоте и счастье.

23. У Любы с Купитманом есть общая тайна.
Светлана Пермякова о характерных чертах своего персонажа - Любовь Михайловны Скрябиной, старшей медсестры, а также о том, как ее персонаж будет развиваться в новых сериях.

24. Что у Левина в карманах?
Дмитрий Шаракоис вывел свою собственную теорию развития характера своего персонажа Бориса Аркадьевича Левина!

25. Раскрыт секрет очков Левина.
Дмитрий Шаракоис раскрывает тайну возникновения культовых очков Левина и рассказывает, как он мучительно проходил пробы.

26. Уроки хирургии от Любы: пьём спирт!
Актриса Светлана Пермякова вспоминает свою бурную молодость и увлечение хирургией, а в особенности медицинским спиртом...

27. ТНТ-socks с Иваном Охлобыстиным.
Самое откровенное интервью Ивана Охлобыстина.

28. Иван Охлобыстин VS Иван Грозный
Вот, что крест животворящий делает!

29. Люблю кровь и колоться!
Интервью актера Дмитрия Шаракоиса, исполнителя роли доктора Левина в сериале Интерны. Дмитрий рассказал о том, что последнее время ему начали звонить друзья и просить медицинской консультации. И еще о своей «болезни Левина» или, лучше сказать, психологической особенности – любви крови и уколов в вену.
Название: 2010-2012 Интерны: Не вошедшее в эфир ТНТ
Год выпуска: 2010-2012 2010
Жанр: Сериалы, Юмор

Описание: Несколько документальных сюжетов, которые не будут показаны в эфире, и в которых актёры фильма рассказывают о своих героях, коллегах и жизни на съёмочной площадке.

Режиссер Максим Пежемский, Заур Болотаев
В ролях Иван Охлобыстин, Александр Ильин, Дмитрий Шаракоис, Илья Глинников, Вадим Демчог, Светлана Пермякова, Кристина Асмус

Продолжительность: 29 сюжетов до 00:10:00
Перевод: Оригинальный

Видеокодек: AVC/H.264
Битрейт видео: переменный битрейт ~1180 Кбит/сек
Размер кадра: 400x300, 480x368, 640x480
Качество видео: WebRip
Аудиокодек: AAC
Битрейт аудио: 152 Kb/s VBR
Формат: AVI
Видеокодек: XviD
Аудиокодек: MP3
Видео: 1160 Кбит/сек, 624*352 (16:9), в 25,0000 кадров/сек, MPEG-4 Visual (XviD) (Advanced Simple@L5) (BVOP2)
Аудио: 124 Кбит/сек, 48,0 Кгц, 2 канала, MPEG Audio (MP3 ) (Version 1)(Layer 3)(Joint stereo/MS Stereo)
Формат : AVI
Формат/Информация : Audio Video Interleave
Размер файла : 233 Мбайт
Продолжительность : 25 м.
Режим общего битрейта : Переменный
Общий поток : 1296 Кбит/сек
Программа кодирования : Nandub v1.0rc2
Библиотека кодирования : Nandub build 1853/release

Видео
Идентификатор : 0
Формат : MPEG-4 Visual
Профиль формата : Advanced Simple@L5
Параметр BVOP формата : 2
Параметр QPel формата : Нет
Параметр GMC формата : Без точки перехода
Параметр матрицы формата : Default (H.263)
Идентификатор кодека : XVID
Идентификатор кодека/Подсказка : XviD
Продолжительность : 25 м.
Битрейт : 1160 Кбит/сек
Ширина : 624 пикселя
Высота : 352 пикселя
Соотношение сторон : 16:9
Частота кадров : 25,000 кадров/сек
Цветовое пространство : YUV
Субдискретизация насыщенности : 4:2:0
Битовая глубина : 8 бит
Тип развёртки : Прогрессивная
Метод сжатия : С потерями
Бит/(Пиксели*Кадры) : 0.211
Размер потока : 209 Мбайт (89%)
Библиотека кодирования : XviD 1.2.1 (UTC 2008-12-04)

Аудио
Идентификатор : 1
Формат : MPEG Audio
Версия формата : Version 1
Профиль формата : Layer 3
Режим : Joint stereo
Расширение режима : MS Stereo
Идентификатор кодека : 55
Идентификатор кодека/Подсказка : MP3
Продолжительность : 25 м.
Вид битрейта : Переменный
Битрейт : 124 Кбит/сек
Минимальный битрейт : 32,0 Кбит/сек
Каналы : 2 канала
Частота : 48,0 КГц
Метод сжатия : С потерями
Размер потока : 22,3 Мбайт (10%)
Выравнивание : Соединение по промежуткам
Продолжительность промежутка : 24 мс. (0,60 видеокадр)
Время предзагрузки промежутка : 474 мс.
Библиотека кодирования : LAME3.97
Настройки программы : -m j -V 2 -q 3 -lowpass 18.6 --vbr-new -b 32
скриншот   скриншот   скриншот   скриншот   скриншот   скриншот  
Формат: AVI
Видеокодек: XviD
Аудиокодек: MP3
Видео: 1185 Кбит/сек, 624*352 (16:9), в 25,0000 кадров/сек, MPEG-4 Visual (XviD) (Advanced Simple@L5) (BVOP2)
Аудио: 118 Кбит/сек(128Кбит/сек), 48,0 Кгц, 2 канала, MPEG Audio (MP3 ) (Version 1)(Layer 3)(Joint stereo/MS Stereo)
Формат : AVI
Формат/Информация : Audio Video Interleave
Размер файла : 233 Мбайт
Продолжительность : 24 м.
Режим общего битрейта : Переменный
Общий поток : 1316 Кбит/сек
Программа кодирования : Nandub v1.0rc2
Библиотека кодирования : Nandub build 1853/release

Видео
Идентификатор : 0
Формат : MPEG-4 Visual
Профиль формата : Advanced Simple@L5
Параметр BVOP формата : 2
Параметр QPel формата : Нет
Параметр GMC формата : Без точки перехода
Параметр матрицы формата : Default (H.263)
Идентификатор кодека : XVID
Идентификатор кодека/Подсказка : XviD
Продолжительность : 24 м.
Битрейт : 1185 Кбит/сек
Ширина : 624 пикселя
Высота : 352 пикселя
Соотношение сторон : 16:9
Частота кадров : 25,000 кадров/сек
Цветовое пространство : YUV
Субдискретизация насыщенности : 4:2:0
Битовая глубина : 8 бит
Тип развёртки : Прогрессивная
Метод сжатия : С потерями
Бит/(Пиксели*Кадры) : 0.216
Размер потока : 210 Мбайт (90%)
Библиотека кодирования : XviD 1.2.1 (UTC 2008-12-04)

Аудио
Идентификатор : 1
Формат : MPEG Audio
Версия формата : Version 1
Профиль формата : Layer 3
Режим : Joint stereo
Расширение режима : MS Stereo
Идентификатор кодека : 55
Идентификатор кодека/Подсказка : MP3
Продолжительность : 24 м.
Вид битрейта : Переменный
Битрейт : 118 Кбит/сек
Номинальный битрейт : 128 Кбит/сек
Каналы : 2 канала
Частота : 48,0 КГц
Метод сжатия : С потерями
Размер потока : 20,9 Мбайт (9%)
Выравнивание : Соединение по промежуткам
Продолжительность промежутка : 24 мс. (0,60 видеокадр)
Время предзагрузки промежутка : 475 мс.
Библиотека кодирования : LAME3.97
Настройки программы : -m j -V 4 -q 3 -lowpass 17 --abr 128
скриншот   скриншот   скриншот   скриншот   скриншот  
Формат: AVI
Видеокодек: XviD
Аудиокодек: MP3
Видео: 1175 Кбит/сек, 624*352 (16:9), в 25,0000 кадров/сек, MPEG-4 Visual (XviD) (Advanced Simple@L5) (BVOP2)
Аудио: 117 Кбит/сек(128 Кбит/сек), 48,0 Кгц, 2 канала, MPEG Audio (MP3 ) (Version 1)(Layer 3)(Joint stereo/MS Stereo)
Формат : AVI
Формат/Информация : Audio Video Interleave
Размер файла : 233 Мбайт
Продолжительность : 24 м.
Режим общего битрейта : Переменный
Общий поток : 1305 Кбит/сек
Программа кодирования : Nandub v1.0rc2
Библиотека кодирования : Nandub build 1853/release

Видео
Идентификатор : 0
Формат : MPEG-4 Visual
Профиль формата : Advanced Simple@L5
Параметр BVOP формата : 2
Параметр QPel формата : Нет
Параметр GMC формата : Без точки перехода
Параметр матрицы формата : Default (H.263)
Идентификатор кодека : XVID
Идентификатор кодека/Подсказка : XviD
Продолжительность : 24 м.
Битрейт : 1175 Кбит/сек
Ширина : 624 пикселя
Высота : 352 пикселя
Соотношение сторон : 16:9
Частота кадров : 25,000 кадров/сек
Цветовое пространство : YUV
Субдискретизация насыщенности : 4:2:0
Битовая глубина : 8 бит
Тип развёртки : Прогрессивная
Метод сжатия : С потерями
Бит/(Пиксели*Кадры) : 0.214
Размер потока : 210 Мбайт (90%)
Библиотека кодирования : XviD 1.2.1 (UTC 2008-12-04)

Аудио
Идентификатор : 1
Формат : MPEG Audio
Версия формата : Version 1
Профиль формата : Layer 3
Режим : Joint stereo
Расширение режима : MS Stereo
Идентификатор кодека : 55
Идентификатор кодека/Подсказка : MP3
Продолжительность : 24 м.
Вид битрейта : Переменный
Битрейт : 117 Кбит/сек
Номинальный битрейт : 128 Кбит/сек
Каналы : 2 канала
Частота : 48,0 КГц
Метод сжатия : С потерями
Размер потока : 21,0 Мбайт (9%)
Выравнивание : Соединение по промежуткам
Продолжительность промежутка : 24 мс. (0,60 видеокадр)
Время предзагрузки промежутка : 464 мс.
Библиотека кодирования : LAME3.97
Настройки программы : -m j -V 4 -q 3 -lowpass 17 --abr 128
скриншот   скриншот   скриншот   скриншот   скриншот   скриншот  
Формат: AVI
Видеокодек: XviD
Аудиокодек: AC3
Видео: 1353 Кбит/сек, 720*416 (1.731), в 25,0000 кадров/сек, MPEG-4 Visual (XviD) (Advanced Simple@L5) (BVOP2)
Аудио: 192 Кбит/сек, 48,0 Кгц, 16 бит, 2 канала, AC-3
Формат : AVI
Формат/Информация : Audio Video Interleave
Размер файла : 277 Мбайт
Продолжительность : 24 м.
Общий поток : 1554 Кбит/сек
Программа кодирования : VirtualDubMod 1.5.10.2 (build 2540/release)
Библиотека кодирования : VirtualDubMod build 2540/release

Видео
Идентификатор : 0
Формат : MPEG-4 Visual
Профиль формата : Advanced Simple@L5
Параметр BVOP формата : 2
Параметр QPel формата : Нет
Параметр GMC формата : Без точки перехода
Параметр матрицы формата : Default (MPEG)
Идентификатор кодека : XVID
Идентификатор кодека/Подсказка : XviD
Продолжительность : 24 м.
Битрейт : 1353 Кбит/сек
Ширина : 720 пикселей
Высота : 416 пикселей
Соотношение сторон : 1,731
Частота кадров : 25,000 кадров/сек
Цветовое пространство : YUV
Субдискретизация насыщенности : 4:2:0
Битовая глубина : 8 бит
Тип развёртки : Прогрессивная
Метод сжатия : С потерями
Бит/(Пиксели*Кадры) : 0.181
Размер потока : 241 Мбайт (87%)
Библиотека кодирования : XviD 1.2.1 (UTC 2008-12-04)

Аудио
Идентификатор : 1
Формат : AC-3
Формат/Информация : Audio Coding 3
Расширение режима : CM (complete main)
Параметр Endianness формата : Big
Идентификатор кодека : 2000
Продолжительность : 24 м.
Вид битрейта : Постоянный
Битрейт : 192 Кбит/сек
Каналы : 2 канала
Расположение каналов : Front: L R
Частота : 48,0 КГц
Битовая глубина : 16 бит
Метод сжатия : С потерями
Размер потока : 34,2 Мбайт (12%)
Выравнивание : Разделение по промежуткам
Продолжительность промежутка : 40 мс. (1,00 видеокадр)
Время предзагрузки промежутка : 500 мс.
скриншот   скриншот   скриншот   скриншот   скриншот  
Формат: AVI
Видеокодек: XviD
Аудиокодек: AC3
Видео: 1280 Кбит/сек, 720*416 (1.731), в 25,0000 кадров/сек, MPEG-4 Visual (XviD) (Advanced Simple@L5) (BVOP2)
Аудио: 192 Кбит/сек, 48,0 Кгц, 16 бит, 2 канала, AC-3
Формат : AVI
Формат/Информация : Audio Video Interleave
Размер файла : 264 Мбайт
Продолжительность : 24 м.
Общий поток : 1482 Кбит/сек
Программа кодирования : VirtualDubMod 1.5.10.2 (build 2540/release)
Библиотека кодирования : VirtualDubMod build 2540/release

Видео
Идентификатор : 0
Формат : MPEG-4 Visual
Профиль формата : Advanced Simple@L5
Параметр BVOP формата : 2
Параметр QPel формата : Нет
Параметр GMC формата : Без точки перехода
Параметр матрицы формата : Default (MPEG)
Идентификатор кодека : XVID
Идентификатор кодека/Подсказка : XviD
Продолжительность : 24 м.
Битрейт : 1280 Кбит/сек
Ширина : 720 пикселей
Высота : 416 пикселей
Соотношение сторон : 1,731
Частота кадров : 25,000 кадров/сек
Цветовое пространство : YUV
Субдискретизация насыщенности : 4:2:0
Битовая глубина : 8 бит
Тип развёртки : Прогрессивная
Метод сжатия : С потерями
Бит/(Пиксели*Кадры) : 0.171
Размер потока : 228 Мбайт (86%)
Библиотека кодирования : XviD 1.2.1 (UTC 2008-12-04)

Аудио
Идентификатор : 1
Формат : AC-3
Формат/Информация : Audio Coding 3
Расширение режима : CM (complete main)
Параметр Endianness формата : Big
Идентификатор кодека : 2000
Продолжительность : 24 м.
Вид битрейта : Постоянный
Битрейт : 192 Кбит/сек
Каналы : 2 канала
Расположение каналов : Front: L R
Частота : 48,0 КГц
Битовая глубина : 16 бит
Метод сжатия : С потерями
Размер потока : 34,2 Мбайт (13%)
Выравнивание : Разделение по промежуткам
Продолжительность промежутка : 40 мс. (1,00 видеокадр)
Время предзагрузки промежутка : 500 мс.
скриншот   скриншот   скриншот   скриншот   скриншот   скриншот  
Формат: AVI
Видеокодек: XviD
Аудиокодек: MP3
Видео: 1642 Кбит/сек, 720*400 (16:9), в 25,0000 кадров/сек, MPEG-4 Visual (XviD)(Сжатый битовый поток)(Advanced Simple@L5) (BVOP2)
Аудио: 128 Кбит/сек, 48,0 Кгц, 2 канала, MPEG Audio (MP3 )(Version 1)(Layer3)(Joint tereo/MS Stereo)
Формат : AVI
Формат/Информация : Audio Video Interleave
Профиль формата : OpenDML
Настройки формата : rec
Размер файла : 268 Мбайт
Продолжительность : 21 м.
Общий поток : 1774 Кбит/сек
Программа кодирования : AVI-Mux GUI 1.17.8.3, Feb 16 201019:42:50

Видео
Идентификатор : 0
Формат : MPEG-4 Visual
Профиль формата : Advanced Simple@L5
Параметр BVOP формата : 2
Параметр QPel формата : Нет
Параметр GMC формата : Без точки перехода
Параметр матрицы формата : Default (H.263)
Режим смешивания : Сжатый битовый поток
Идентификатор кодека : XVID
Идентификатор кодека/Подсказка : XviD
Продолжительность : 21 м.
Битрейт : 1642 Кбит/сек
Ширина : 720 пикселей
Высота : 400 пикселей
Соотношение сторон : 16:9
Частота кадров : 25,000 кадров/сек
Цветовое пространство : YUV
Субдискретизация насыщенности : 4:2:0
Битовая глубина : 8 бит
Тип развёртки : Прогрессивная
Метод сжатия : С потерями
Бит/(Пиксели*Кадры) : 0.228
Размер потока : 248 Мбайт (93%)
Библиотека кодирования : XviD 64

Аудио
Идентификатор : 1
Формат : MPEG Audio
Версия формата : Version 1
Профиль формата : Layer 3
Режим : Joint stereo
Расширение режима : MS Stereo
Идентификатор кодека : 55
Идентификатор кодека/Подсказка : MP3
Продолжительность : 21 м.
Вид битрейта : Постоянный
Битрейт : 128 Кбит/сек
Каналы : 2 канала
Частота : 48,0 КГц
Метод сжатия : С потерями
Размер потока : 19,3 Мбайт (7%)
Выравнивание : Соединение по промежуткам
Продолжительность промежутка : 515 мс. (12,89 видеокадров)
Время предзагрузки промежутка : 216 мс.
Библиотека кодирования : LAME3.98.2ЄЄЄЄЄЄЄЄЄЄ
скриншот   скриншот   скриншот   скриншот   скриншот   скриншот  
Формат: AVI
Видеокодек: XviD
Аудиокодек: MP3
Видео: 1642 Кбит/сек, 720*400 (16:9), в 25,0000 кадров/сек, MPEG-4 Visual (XviD)(Сжатый битовый поток)(Advanced Simple@L5) (BVOP2)
Аудио: 128 Кбит/сек, 48,0 Кгц, 2 канала, MPEG Audio (MP3 )(Version 1)(Layer3)(Joint tereo/MS Stereo)
Формат : AVI
Формат/Информация : Audio Video Interleave
Размер файла : 297 Мбайт
Продолжительность : 23 м.
Общий поток : 1789 Кбит/сек
Программа кодирования : TMPGEnc Video Mastering Works 5 Version. 5.0.6.38
Библиотека кодирования : TMPGEnc Video Mastering Works 5 Version. 5.0.6.38

Видео
Идентификатор : 0
Формат : MPEG-4 Visual
Профиль формата : Advanced Simple@L5
Параметр BVOP формата : 2
Параметр QPel формата : Нет
Параметр GMC формата : Без точки перехода
Параметр матрицы формата : Default (H.263)
Режим смешивания : Сжатый битовый поток
Идентификатор кодека : XVID
Идентификатор кодека/Подсказка : XviD
Продолжительность : 23 м.
Битрейт : 1648 Кбит/сек
Ширина : 720 пикселей
Высота : 400 пикселей
Соотношение сторон : 16:9
Частота кадров : 25,000 кадров/сек
Цветовое пространство : YUV
Субдискретизация насыщенности : 4:2:0
Битовая глубина : 8 бит
Тип развёртки : Прогрессивная
Метод сжатия : С потерями
Бит/(Пиксели*Кадры) : 0.229
Размер потока : 273 Мбайт (92%)
Библиотека кодирования : XviD 1.2.1 (UTC 2008-12-04)

Аудио
Идентификатор : 1
Формат : MPEG Audio
Версия формата : Version 1
Профиль формата : Layer 3
Режим : Joint stereo
Расширение режима : MS Stereo
Идентификатор кодека : 55
Идентификатор кодека/Подсказка : MP3
Продолжительность : 23 м.
Вид битрейта : Постоянный
Битрейт : 128 Кбит/сек
Каналы : 2 канала
Частота : 48,0 КГц
Метод сжатия : С потерями
Размер потока : 21,2 Мбайт (7%)
Выравнивание : Соединение по промежуткам
Продолжительность промежутка : 40 мс. (1,00 видеокадр)
Время предзагрузки промежутка : 384 мс.
скриншот   скриншот   скриншот   скриншот   скриншот  

Внимание! Раздача ведётся путём добавления новых серий; при каждом добавлении создётся новый торрент. Чтобы начать докачку новой серии, пользователям необходимо сделать следующее:
(1) остановить скачивание,
(2) удалить старый торрент у себя из клиента (старые серии удалять не надо),
(3) скачать новый торрент и запустить его у себя в клиенте вместо старого, при этом указать клиенту путь в старую папку куда и должно происходить скачивание новых серий.

Ваш клиент при этом должен произвести хеширование (проверку) старой папки (если не производит сам - помогите ему сделать это), и будет докачивать только те серии которых у вас ещё нет. Старые серии при этом не удаляются, а продолжают раздаваться!

Eсли вы уже удалили старые серии, то предотвратить повторную закачку старых серий можно, отжав галочку в соответсвующих местах при запуске нового торрента. По возможности, желательно не удалять старые серии как можно дольше чтобы релизёр не столько продолжал раздавать старые серии, а смог сконцентрироваться на новых.
pb.wtf



Скачать Интерны 1-7 сезоны через торрент https://pic1.kartinco.top/images/2000/zf91h1pxbx.png Скачать, смотреть онлайн Интерны 1-7 сезоны бесплантно в хорошем качестве Описание: Жизнь обычной многопрофильной больницы - сплошная рутина. Ненормированный рабочий день, тяжелая, неблагодарная работа, а также ... 10 10 47
Info! Золотая раздача, скачанное не засчитывается.
Торрент: Зарегистрирован [2013-01-22 06:26] · скачан: 995 раз
Статус: √ проверено
Размер: 37.67 GB
Как cкачать? Как скачать Интерны 1-7 сезоны через торрент | UTorrent



Последний раз редактировалось: dotWizard (2013-01-22 06:50), всего редактировалось 7 раз(а)

28-11-2019 20:33  

Отключить всю рекламу на сайте

11-01-2013 11:46 Интерны 1-7 сезоны Скачать торрент  

это ж мне неделю качатьpb.wtf



11-01-2013 12:00 Интерны 1-7 сезоны Скачать торрент  

а на данный момент сколько серий вышло ? тут все серии на сегодняшний день ? 140 последния ? просто я давно не смотрел интерны.pb.wtf



11-01-2013 12:09 Интерны 1-7 сезоны Скачать торрент  

Да. На данный момент их 140.
P.S. с 5 до 12 утра по Москве выдам больше скорости.pb.wtf



11-01-2013 14:50 Интерны 1-7 сезоны Скачать торрент  

dotWizard
Респект, поклон и уважение. Молодца!!!!pb.wtf



12-01-2013 21:23 Интерны 1-7 сезоны Скачать торрент  

Спасибо - посмотрю все серии снова))pb.wtf



13-01-2013 05:15 Интерны 1-7 сезоны Скачать торрент  

Автору респект!!!pb.wtf



14-01-2013 11:11 Интерны 1-7 сезоны Скачать торрент  

подкинте дровишек :shoot2:pb.wtf



22-01-2013 06:41 Интерны 1-7 сезоны Скачать торрент  

22.01.2013 добавлен документальный фильм "Интерны. История болезни."pb.wtf



08-09-2013 02:13 Интерны 1-7 сезоны Скачать торрент  

Дайте скорости пожалуйста!!!!!!!!!!!!!!!!!!!!pb.wtf



12-02-2015 04:58 Интерны 1-7 сезоны Скачать торрент  

ребят поставьте на раздачу а то 5% осталосьpb.wtf



12-02-2015 05:16 Интерны 1-7 сезоны Скачать торрент  

спасибо 45 мин осталосьpb.wtf



28-07-2016 18:22 Интерны 1-7 сезоны Скачать торрент  

дайте раздачу пожалуйста,2 сезона осталосьpb.wtf



28-07-2016 18:23 Интерны 1-7 сезоны Скачать торрент  

dotWizard, дай раздач пожалуйстаpb.wtf



    Дорогой пользователь! Огромная просьба, поблагодарите релизера, оцените раздачу и оставьте свои комментарий, если Вы скачали Интерны 1-7 сезоны через торрент бесплатно!
    Комментировать посты могут только пользователи прошедшие не сложную регистрацию
    Показать сообщения:    

    Интерны 1-7 сезоны через торрент
    Скачать бесплатно Интерны 1-7 сезоны
    Интерны 1-7 сезоны скачать торрент
    Интерны 1-7 сезоны смотреть онлайн
    Cкачать фильм Интерны 1-7 сезоны бесплатно
    Интерны 1-7 сезоны скачать торрент в хорошем качестве
    Интерны 1-7 сезоны смотреть онлайн бесплатно в хорошем качестве


    Вы не можете начинать темы
    Вы не можете отвечать на сообщения
    Вы не можете редактировать свои сообщения
    Вы не можете удалять свои сообщения
    Вы не можете голосовать в опросах
    Вы не можете прикреплять файлы к сообщениям
    Вы можете скачивать файлы