2 сезон

iTunes

MVO

1

2 сезон

iTunes

iTunes

1 сезон

RePack

30

Ultimate

ВАЖНО

ИГРА 18+

pack

RePack

MK11
pack

Легкие деньги

RePack

jed

RePack

fifa19

RePack

RDR2

RePack

NEED FOR SPEED™ PAYBACK

4 сезон

9 сезон

Бесстыжие 9 сезон

Все сериалы

все сериалы на PB.wtf

RePack

FAR CRY 5

Anonymous, доброй ночи, мы не успеваем собрать деньги на оплату серверов за декабрь и январь, помогите нам пожалуйста в это трудное время. В качестве благодарности мы отключим Вам всю рекламу на сайте (укажите свой ник в строку Ваше имя)!

×
  
Magnet ссылка

Нас Приняли / Accepted (Стив Пинк) [2006 г., комедия, семейный, пародия, DVDRip, MVO, лицензия] pb.wtf

Нас Приняли через торрент pb.wtf

Размер: 306 MB | Добавлен: 7 лет 9 мес. назад | Торрент скачан:10 раз
Скачать  

23-03-2013 15:45 Нас Приняли Скачать торрент  

Нас Приняли / Accepted
Год выпуска: 2006
Страна: США
Жанр: комедия, семейный, пародия
Продолжительность: 90 мин. / 01:30
Перевод: Профессиональный многоголосый
Тип релиза: Пиратка
Субтитры: Отсутствуют

Режиссер: Стив Пинк
Продюссер: Майкл Бостик, Луис Дж. Фридман, Брайан Лутс
Сценарий: Адам Купер, Билл Колладж, Марк Перез

Бюджет: $38 469 766
Премьера в мире: 18 августа 2006



В ролях: Джастин Лонг, Джона Хилл, Адам Хершман, Коламбус Шорт, Мария Тэйер, Льюис Блэк, Блейк Лайвли, Марк Дервин, Энн Кьюсак, Ханна Маркс.

Описание: Выпускник средней школы Бартлби Гейнс получил восьмой отказ о приеме в институт, что, конечно, вряд ли устроит его родителей. К счастью, он не один такой. Несколько друзей-одноклассников стоят перед той же проблемой.

Так как же парень с унылой перспективой сможет успокоить родителей и добиться расположения красотки Моники? Просто. Он откроет свой собственный университет…

Качество: DVDRip
Формат: MP4
Видео кодек: Другой MPEG4
Аудио кодек: AC3
Видео: 340 Кбит/сек 640х270 пикселей 23,976 кадра/сек
Аудио#1: 128 Кбит/сек 2 канала 44,1 КГц





Общее
Формат : MPEG-4
Профиль формата : Base Media
Идентификатор кодека : isom
Размер файла : 306 Мбайт
Продолжительность : 1 ч. 33 м.
Режим общего битрейта : Переменный
Общий поток : 460 Кбит/сек
Программа кодирования : Lavf52.40.0

Видео
Идентификатор : 1
Формат : AVC
Формат/Информация : Advanced Video Codec
Профиль формата : Baseline@L3.0
Параметр CABAC формата : Нет
Параметр ReFrames формата : 1 кадр
Идентификатор кодека : avc1
Идентификатор кодека/Информация : Advanced Video Coding
Продолжительность : 1 ч. 33 м.
Битрейт : 340 Кбит/сек
Ширина : 640 пикселей
Высота : 270 пикселей
Соотношение сторон : 2,40:1
Режим частоты кадров : Переменный
Частота кадров : 23,976 кадра/сек
Частота кадров в оригинале : 25,000 кадров/сек
Минимальная частота кадров : 12,500 кадров/сек
Максимальная частота кадров : 25,000 кадров/сек
Цветовое пространство : YUV
Субдискретизация насыщенности : 4:2:0
Битовая глубина : 8 бит
Тип развёртки : Прогрессивная
Бит/(Пиксели*Кадры) : 0.082
Размер потока : 218 Мбайт (71%)
Библиотека кодирования : x264 core 79

Аудио
Идентификатор : 2
Формат : AAC
Формат/Информация : Advanced Audio Codec
Профиль формата : LC
Идентификатор кодека : 40
Продолжительность : 1 ч. 32 м.
Вид битрейта : Переменный
Битрейт : 128 Кбит/сек
Каналы : 2 канала
Расположение каналов : Front: L R
Частота : 44,1 КГц
Метод сжатия : С потерями
Размер потока : 85,0 Мбайт (28%)


нас приняли , accepted, комедии скачать торрент


pb.wtf



Скачать Нас Приняли через торрент http://pic.kartinco.top/images/2/zgq614q5uw.jpg Скачать фильм Нас Приняли через торрент бесплантно в хорошем качестве Описание: Выпускник средней школы Бартлби Гейнс получил восьмой отказ о приеме в институт, что, конечно, вряд ли устроит его родителей. К ... 10 10 1
Info! Золотая раздача, скачанное не засчитывается.
Торрент: Зарегистрирован [2013-03-23 15:45] · скачан: 10 раз
Статус: √ проверено
Размер: 306 MB
Как cкачать? Как скачать Нас Приняли через торрент | UTorrent

% Раздел Тема Автор DL S | L
# Фильмы 2006-2008 [ 4.23 GB ] Нас приняли! / Accepted [2006 BDRip 1080p [ - ] flatro1 Скачать
1 | 0
Фильмы 2006-2008 [ 1.37 GB ] Нас приняли! / Accepted [2006 HDRip лицензия] TekkenxD Скачать
1 | 0
Фильмы 2006-2008 [ 1.45 GB ] Нас приняли! / Accepted [2006 DVDRip лицензия] Anonymous Скачать
1 | 0
Фильмы 2006-2008 [ 1.45 GB ] Нас приняли! / Accepted [2006 ... HDRip] marrio Скачать
1 | 0

28-11-2019 20:33  

Отключить всю рекламу на сайте

    Дорогой пользователь! Огромная просьба, поблагодарите релизера, оцените раздачу и оставьте свои комментарий, если Вы скачали Нас Приняли через торрент бесплатно! Внесите свою лепту в развитие PiratBit!
    Комментировать посты могут только пользователи прошедшие не сложную регистрацию
    Показать сообщения:    

    Нас Приняли через торрент
    Скачать бесплатно Нас Приняли
    Нас Приняли скачать торрент
    Нас Приняли смотреть онлайн
    Cкачать фильм Нас Приняли бесплатно
    Нас Приняли скачать торрент в хорошем качестве
    Нас Приняли смотреть онлайн бесплатно в хорошем качестве


    Вы не можете начинать темы
    Вы не можете отвечать на сообщения
    Вы не можете редактировать свои сообщения
    Вы не можете удалять свои сообщения
    Вы не можете голосовать в опросах
    Вы не можете прикреплять файлы к сообщениям
    Вы можете скачивать файлы