Ссылка на приватное зеркало нашего сайта всего за 1$. Внимание количество ограничено!!!

2 сезон

iTunes

1 сезон

1

iTunes

iTunes

iTunes

1 сезон

RePack

30

ИГРА 18+

pack

ВАЖНО

!!Акция!!

Alien_RageХит недели

RePack

MK11
pack

Забери бонус

RePack

jed

!!Акция!!

Alien_Rage

RePack

fifa19

RePack

Assassins Creed: Odyssey

RePack

NEED FOR SPEED™ PAYBACK

4 сезон

9 сезон

Бесстыжие 9 сезон

Все сериалы

все сериалы на PB.wtf

RePack

FAR CRY 5
  

Затащи меня в Ад / Drag Me to Hell (Сэм Рэйми) [2009 г., ужасы, триллер, BDRip 720p, Дубляж, лицензия] [Theatrical Cut] pb.wtf

Затащи меня в Ад через торрент pb.wtf

Размер: 4.68 GB | Добавлен: 7 лет 6 мес. назад | Торрент скачан:196 раз
Скачать  

24-03-2013 08:26 Затащи меня в Ад Скачать торрент  

Затащи меня в Ад / Drag Me to Hell

«У Кристин Браун есть хорошая работа, великий друг, и блестящее будущее.
Но через три дня она отправится к дьяволу.»



Год выпуска: 2009
Страна: США
Жанр: ужасы, триллер,
Продолжительность: 01:39:06 [Theatrical Cut]
Перевод: Дубляж, Лицензия
Тип релиза: Лицензия
Субтитры: Есть

Режиссер: Сэм Рэйми
Продюссер: Грант Кертис, Роберт Дж. Тейперт, Сэм Рэйми
Сценарий: Сэм Рэйми, Айван Рэйми

Бюджет: $30 000 000

Мировой рейтинг IMDB 6.70 (104 605)


В ролях: Элисон Ломан, Джастин Лонг, Лорна Рэвер, Дилип Рао, Дэвид Пэймер, Адриана Барраза, Челси Росс, Регги Ли, Молли Чик, Бояна Новакович, Наталья Фищук, Алексей Мясников, Ирина Пономарева, Радик Мухаметзянов, Василий Дахненко,

Описание: Кристина Браун живет в Лос-Анжелесе, работает в банке, оформляя клиентам ссуды, у нее обаятельный и любящий бойфренд, профессор Клэй Далтон. Все складывается хорошо и, казалось, что жизнь удалась…, но только до тех пор, пока в банке не появляется некая миссис Гануш с просьбой об отсрочке ипотечного кредита.

Кристина и рада бы пойти навстречу старой женщине, но перед ней маячит возможность занять более высокую должность в банке, и она отказывает старухе. В ответ, та накладывает на нее проклятие, и жизнь девушки превращается в непрерывный кошмар. Теперь помочь Кристине может только провидица Шаун Сэн Дена.


Качество: BDRip 720p
Формат: MKV
Видео кодек: H.26x
Аудио кодек: AC3/DTS
Видео: 1280x544 (2.35:1), 23.976 fps, 4 805 Kbps (0.288 bit/pixel)
Аудио#1: AC-3, 48.0 KHz, 6 ch, 448 Kbps, CBR (Russian)
Аудио#2: DTS, 48.0 KHz, 6 ch, 1 510 Kbps, CBR (English)
Субтитры: Russian, English








Общее
Уникальный идентификатор : 254942637003950837620796999385709081026 (0xBFCC2A76807C3BEAA205F0D9ACB4F1C2)
Полное имя : E:Затащи меня в Ад.2009.Theatrical.Cut.720p.x264.mkv
Формат : Matroska
Версия формата : Version 2
Размер файла : 4,68 Гбайт
Продолжительность : 1 ч. 39 м.
Общий поток : 6763 Кбит/сек
Дата кодирования : UTC 2010-03-30 12:09:16
Программа кодирования : mkvmerge v3.0.0 ('Hang up your Hang-Ups') built on Dec 12 2009 15:20:35
Библиотека кодирования : libebml v0.7.9 + libmatroska v0.8.1

Видео
Идентификатор : 1
Формат : AVC
Формат/Информация : Advanced Video Codec
Профиль формата : High@L4.1
Параметр CABAC формата : Да
Параметр ReFrames формата : 5 кадров
Идентификатор кодека : V_MPEG4/ISO/AVC
Продолжительность : 1 ч. 39 м.
Битрейт : 4805 Кбит/сек
Ширина : 1280 пикселей
Высота : 544 пикселя
Соотношение сторон : 2,35:1
Режим частоты кадров : Постоянный
Частота кадров : 23,976 кадра/сек
Цветовое пространство : YUV
Субдискретизация насыщенности : 4:2:0
Битовая глубина : 8 бит
Тип развёртки : Прогрессивная
Бит/(Пиксели*Кадры) : 0.288
Размер потока : 3,23 Гбайт (69%)
Библиотека кодирования : x264 core 78 r1310 ec46ace
Настройки программы : cabac=1 / ref=5 / deblock=1:0:0 / analyse=0x3:0x133 / me=umh / subme=7 / psy=1 / psy_rd=1.0:0.0 / mixed_ref=1 / me_range=16 / chroma_me=1 / trellis=1 / 8x8dct=1 / cqm=0 / deadzone=21,11 / chroma_qp_offset=-2 / threads=12 / nr=0 / decimate=1 / mbaff=0 / constrained_intra=0 / bframes=3 / b_pyramid=0 / b_adapt=1 / b_bias=0 / direct=1 / wpredb=1 / keyint=240 / keyint_min=24 / scenecut=40 / rc_lookahead=40 / rc=2pass / mbtree=1 / bitrate=4805 / ratetol=1.0 / qcomp=0.60 / qpmin=10 / qpmax=51 / qpstep=4 / cplxblur=20.0 / qblur=0.5 / ip_ratio=1.40 / aq=1:1.00
Язык : English
Default : Да
Forced : Нет

Аудио #1
Идентификатор : 2
Формат : AC-3
Формат/Информация : Audio Coding 3
Расширение режима : CM (complete main)
Параметр Endianness формата : Big
Идентификатор кодека : A_AC3
Продолжительность : 1 ч. 39 м.
Вид битрейта : Постоянный
Битрейт : 448 Кбит/сек
Каналы : 6 каналов
Расположение каналов : Front: L C R, Side: L R, LFE
Частота : 48,0 КГц
Битовая глубина : 16 бит
Метод сжатия : С потерями
Задержка видео : 1 с. 999 мс.
Размер потока : 318 Мбайт (7%)
Заголовок : AC3 @ 5.1 @ 448 kbps
Язык : Russian
Default : Нет
Forced : Нет

Аудио #2
Идентификатор : 3
Формат : DTS
Формат/Информация : Digital Theater Systems
Режим : 16
Параметр Endianness формата : Big
Идентификатор кодека : A_DTS
Продолжительность : 1 ч. 39 м.
Вид битрейта : Постоянный
Битрейт : 1509 Кбит/сек
Каналы : 6 каналов
Расположение каналов : Front: L C R, Side: L R, LFE
Частота : 48,0 КГц
Битовая глубина : 24 бит
Метод сжатия : С потерями
Размер потока : 1,04 Гбайт (22%)
Заголовок : DTS @ 5.1 @ 1510 kbps
Язык : English
Default : Нет
Forced : Нет

Текст #1
Идентификатор : 4
Формат : UTF-8
Идентификатор кодека : S_TEXT/UTF8
Идентификатор кодека/Информация : UTF-8 Plain Text
Язык : Russian
Default : Нет
Forced : Нет

Текст #2
Идентификатор : 5
Формат : UTF-8
Идентификатор кодека : S_TEXT/UTF8
Идентификатор кодека/Информация : UTF-8 Plain Text
Язык : English
Default : Нет
Forced : Нет

Меню
00:00:00.000 : en:1
00:03:21.743 : en:2
00:05:39.548 : en:3
00:07:55.725 : en:4
00:09:55.470 : en:5
00:10:41.599 : en:6
00:14:15.271 : en:7
00:16:05.548 : en:8
00:16:39.874 : en:9
00:18:20.766 : en:10
00:19:32.129 : en:11
00:20:49.498 : en:12
00:22:36.772 : en:13
00:24:23.212 : en:14
00:26:31.840 : en:15
00:30:12.853 : en:16
00:33:51.780 : en:17
00:35:48.730 : en:18
00:38:10.413 : en:19
00:40:03.735 : en:20
00:40:38.519 : en:21
00:42:48.191 : en:22
00:44:29.458 : en:23
00:45:48.746 : en:24
00:49:34.680 : en:25
00:51:34.758 : en:26
00:56:26.842 : en:27
00:59:12.924 : en:28
01:00:21.201 : en:29
01:02:01.843 : en:30
01:02:36.378 : en:31
01:04:58.353 : en:32
01:07:03.478 : en:33
01:10:55.334 : en:34
01:13:34.702 : en:35
01:18:13.647 : en:36
01:19:57.918 : en:37
01:21:39.019 : en:38
01:25:47.100 : en:39
01:26:44.324 : en:40
01:29:59.269 : en:41
01:32:46.978 : en:42
01:34:10.603 : en:43


Затащи меня в Ад скачать торрент






pb.wtf



Скачать Затащи меня в Ад через торрент http://pic.kartinco.top/images/2/6b8hsbpzit.png Скачать фильм Затащи меня в Ад через торрент бесплантно в хорошем качестве Описание: Кристина Браун живет в Лос-Анжелесе, работает в банке, оформляя клиентам ссуды, у нее обаятельный и любящий бойфренд, профессор ... 9.3 10 13
Info! Золотая раздача, скачанное не засчитывается.
Торрент: Зарегистрирован [2013-03-24 08:26] · скачан: 196 раз
Статус: √ проверено
Размер: 4.68 GB
Как cкачать? Как скачать Затащи меня в Ад через торрент | qTorrent

% Раздел Тема Автор DL S | L
Фильмы 2009 [ 1.37 GB ] Затащи меня в Ад / Drag Me to Hell [2009 HDRip] m9sо Скачать
1 | 0
Фильмы [HD 720p, 1080p] (Хороший звук DUB, MVO) [ 5.76 GB ] Затащи меня в Ад / Drag Me to Hell [2009 BDRip 720p] [UNRATED] DUB + MVO + AVO potroks Скачать
1 | 0
Фильмы (HD 720p, 1080p) (48-60 fps) [ 5 GB ] Затащи меня в Ад / Drag Me to Hell [2009 BDRip 720p 60fps ] mimok Скачать
1 | 0
Фильмы [HD 720p, 1080p] (Хороший звук DUB, MVO) [ 10.53 GB ] Затащи меня в Ад / Drag Me to Hell [2009 BDRip лицензия] Arhangell Скачать
1 | 0
Фильмы 2009 [ 2.18 GB ] Затащи меня в Ад / Drag Me to Hell [2009 BDRip лицензия] metanoia Скачать
1 | 0
Фильмы (DVD фильмы) [ 4.38 GB ] Затащи меня в ад / Drag Me to Hell [UNRATED] [2009 DVD5]DUB AVO Sub + Original Assasinca Скачать
1 | 0

28-11-2019 20:33  

Отключить всю рекламу на сайте

24-03-2013 08:44 Затащи меня в Ад Скачать торрент  

Хороший ужастик)pb.wtf



24-03-2013 09:03 Затащи меня в Ад Скачать торрент  

Отличный ужастик!!!!!pb.wtf



24-03-2013 11:38 Затащи меня в Ад Скачать торрент  

жаль продолжения не будет(((pb.wtf



21-04-2014 08:19 Затащи меня в Ад Скачать торрент  

спасибо за раздачуpb.wtf



    Дорогой пользователь! Огромная просьба, поблагодарите релизера, оцените раздачу и оставьте свои комментарий, если Вы скачали Затащи меня в Ад через торрент бесплатно! Внесите свою лепту в развитие PiratBit!
    Комментировать посты могут только пользователи прошедшие не сложную регистрацию
    Показать сообщения:    

    Затащи меня в Ад через торрент
    Скачать бесплатно Затащи меня в Ад
    Затащи меня в Ад скачать торрент
    Затащи меня в Ад смотреть онлайн
    Cкачать фильм Затащи меня в Ад бесплатно
    Затащи меня в Ад скачать торрент в хорошем качестве
    Затащи меня в Ад смотреть онлайн бесплатно в хорошем качестве


    Вы не можете начинать темы
    Вы не можете отвечать на сообщения
    Вы не можете редактировать свои сообщения
    Вы не можете удалять свои сообщения
    Вы не можете голосовать в опросах
    Вы не можете прикреплять файлы к сообщениям
    Вы можете скачивать файлы