2 сезон

iTunes

MVO

1

2 сезон

iTunes

iTunes

1 сезон

RePack

30

Новинка

ВАЖНО

ИГРА 18+

pack

RePack

MK11
pack

Легкие деньги

RePack

jed

RePack

fifa19

RePack

RDR2

RePack

NEED FOR SPEED™ PAYBACK

4 сезон

9 сезон

Бесстыжие 9 сезон

Все сериалы

все сериалы на PB.wtf

RePack

FAR CRY 5

Anonymous, доброй ночи, мы не успеваем собрать деньги на оплату серверов за декабрь и январь, помогите нам пожалуйста в это трудное время. В качестве благодарности мы отключим Вам всю рекламу на сайте (укажите свой ник в строку Ваше имя)!

×
  
Magnet ссылка

Новый Человек-паук в 3D / The Amazing Spider-Man in 3D (Марк Уэбб) [2012 г., фантастика, боевик, приключения, BDRip 720p, Дубляж, лицензия] Anaglyph (Дюбуа) pb.wtf

Новый Человек-паук в 3D через торрент pb.wtf

Размер: 4.97 GB | Добавлен: 7 лет 10 мес. назад | Торрент скачан:385 раз
Скачать  

24-03-2013 09:20 Новый Человек-паук в 3D Скачать торрент  

Новый Человек-паук в 3D / The Amazing Spider-Man in 3D
Год выпуска: 2012
Страна: США
Жанр: фантастика, боевик, приключения,
Продолжительность: 02:16:17
Перевод: Дубляж, Лицензия

Режиссер: Марк Уэбб
Продюссер: Ави Арад, Мэттью Толмак, Лора Зискин
Сценарий: Джеймс Вандербилт, Элвин Сарджент, Стивен Кловз

Бюджет: $230 000 000
Премьера в мире: 13 июня 2012

Мировой рейтинг IMDB 7.20 (219 887)


В ролях: Эндрю Гарфилд, Эмма Стоун, Рис Иванс, Дэнис Лири, Мартин Шин, Салли Филд, Эмбет Дэвидц, Кэмпбелл Скотт, Ирфан Кхан, Крис Зилка,
Роли дублировали: Сергей Смирнов, Виктория Слуцкая, Александр Койгеров, Сергей Дьячков, Александр Новиков,

Описание: В детстве Питер Паркер был оставлен своими родителями, и поэтому воспитывался дядей и тётей. Шли годы, Питер был обычным примерным школьником, подвергался нападкам хулиганов и был влюблён в свою одноклассницу Гвен Стэйси, которая сама втайне отвечала ему взаимностью. Но после укуса генетически изменённого паука, Питер получает невероятные сверхспособности и его жизнь меняется навсегда.Однако его не перестаёт мучить вопрос о том, что случилось с его родителями. Он знакомится с давним другом и партнёром своего отца — генетиком Куртом Коннорсом, который вместе с отцом Питера разрабатывал формулу регенерации. Питер помогает её закончить, а Коннорс, всю жизнь мечтавший восстановить свою правую руку, вводит формулу себе и становится Ящером. Осознавая свою вину, Питер начинает новую жизнь в образе таинственного супергероя Человека-паука и становится грозой преступников, одновременно пытаясь найти способ остановить Коннорса.

Доп. информация:
Формат 3D: Anaglyph (Дюбуа)


Качество: BDRip 720p
Формат: MKV
Видео кодек: x264
Аудио кодек: AC3
Видео: 1288 х 540 / 23,976 fps, (2,40:1) / 4110 Kbps, (0.246 bit/pixel)
Аудио#1: Русский / AC3 / 48 KHz / 5.1 ch / 384 Kbps (Дубляж)
Аудио#2: Украинский / AC3 / 48 KHz / 5.1 ch / 384 Kbps (Дубляж)
Аудио#3: Английский / AC3 / 48 KHz / 5.1 ch / 384 Kbps (Original)



скриншот   скриншот   скриншот   скриншот   скриншот   скриншот  
Общее
Уникальный идентификатор : 283858574888689103277743801641187497590 (0xD58D2C45768754FD4C40E6EA20E95676)
Полное имя : D:DVDThe.Amazing.Spider-Man.3D.2012.BDRip(Anaglyph_Dubois).mkv
Формат : Matroska
Версия формата : Version 2
Размер файла : 4,97 Гбайт
Продолжительность : 2 ч. 16 м.
Общий поток : 5217 Кбит/сек
Программа кодирования : HandBrake 0.9.8
Библиотека кодирования : libmkv 0.6.5

Видео
Идентификатор : 1
Формат : AVC
Формат/Информация : Advanced Video Codec
Профиль формата : High@L3.1
Параметр CABAC формата : Да
Параметр ReFrames формата : 4 кадра
Идентификатор кодека : V_MPEG4/ISO/AVC
Продолжительность : 2 ч. 16 м.
Битрейт : 4110 Кбит/сек
Ширина : 1288 пикселей
Высота : 540 пикселей
Соотношение сторон : 2,40:1
Режим частоты кадров : Постоянный
Частота кадров : 23,976 кадра/сек
Цветовое пространство : YUV
Субдискретизация насыщенности : 4:2:0
Битовая глубина : 8 бит
Тип развёртки : Прогрессивная
Бит/(Пиксели*Кадры) : 0.246
Размер потока : 3,77 Гбайт (76%)
Библиотека кодирования : x264 core 120
Настройки программы : cabac=1 / ref=4 / deblock=1:0:0 / analyse=0x3:0x113 / me=hex / subme=2 / psy=1 / psy_rd=1.00:0.00 / mixed_ref=1 / me_range=16 / chroma_me=1 / trellis=0 / 8x8dct=1 / cqm=0 / deadzone=21,11 / fast_pskip=1 / chroma_qp_offset=0 / threads=3 / sliced_threads=0 / nr=0 / decimate=1 / interlaced=0 / bluray_compat=0 / constrained_intra=0 / bframes=3 / b_pyramid=2 / b_adapt=1 / b_bias=0 / direct=1 / weightb=1 / open_gop=0 / weightp=2 / keyint=240 / keyint_min=24 / scenecut=40 / intra_refresh=0 / rc_lookahead=10 / rc=abr / mbtree=1 / bitrate=4110 / ratetol=1.0 / qcomp=0.60 / qpmin=3 / qpmax=69 / qpstep=4 / ip_ratio=1.40 / aq=1:1.00
Язык : English
Default : Да
Forced : Нет
Основные цвета : BT.709
Характеристики трансфера : BT.709
Коэффициенты матрицы : BT.709

Аудио #1
Идентификатор : 2
Формат : AC-3
Формат/Информация : Audio Coding 3
Расширение режима : CM (complete main)
Параметр Endianness формата : Big
Идентификатор кодека : A_AC3
Продолжительность : 2 ч. 16 м.
Вид битрейта : Постоянный
Битрейт : 384 Кбит/сек
Каналы : 6 каналов
Расположение каналов : Front: L C R, Side: L R, LFE
Частота : 48,0 КГц
Битовая глубина : 16 бит
Метод сжатия : С потерями
Размер потока : 374 Мбайт (7%)
Язык : Russian
Default : Да
Forced : Нет

Аудио #2
Идентификатор : 3
Формат : AC-3
Формат/Информация : Audio Coding 3
Расширение режима : CM (complete main)
Параметр Endianness формата : Big
Идентификатор кодека : A_AC3
Продолжительность : 2 ч. 16 м.
Вид битрейта : Постоянный
Битрейт : 384 Кбит/сек
Каналы : 6 каналов
Расположение каналов : Front: L C R, Side: L R, LFE
Частота : 48,0 КГц
Битовая глубина : 16 бит
Метод сжатия : С потерями
Размер потока : 374 Мбайт (7%)
Язык : Ukrainian
Default : Нет
Forced : Нет

Аудио #3
Идентификатор : 4
Формат : AC-3
Формат/Информация : Audio Coding 3
Расширение режима : CM (complete main)
Параметр Endianness формата : Big
Идентификатор кодека : A_AC3
Продолжительность : 2 ч. 16 м.
Вид битрейта : Постоянный
Битрейт : 384 Кбит/сек
Каналы : 6 каналов
Расположение каналов : Front: L C R, Side: L R, LFE
Частота : 48,0 КГц
Битовая глубина : 16 бит
Метод сжатия : С потерями
Размер потока : 374 Мбайт (7%)
Язык : English
Default : Нет
Forced : Нет


Новый Человек-паук скачать торрент


pb.wtf



Скачать Новый Человек-паук в 3D через торрент http://i51.fastpic.ru/big/2013/0324/5f/910a81429f03ff90b575d74d9fdb6d5f.gif Скачать фильм Новый Человек-паук в 3D через торрент бесплантно в хорошем качестве Описание: В детстве Питер Паркер был оставлен своими родителями, и поэтому воспитывался дядей и тётей. Шли годы, Питер был обычным ... 9.3 10 13
Info! Золотая раздача, скачанное не засчитывается.
Торрент: Зарегистрирован [2013-03-24 09:20] · скачан: 385 раз
Статус: √ проверено
Размер: 4.97 GB
Как cкачать? Как скачать Новый Человек-паук в 3D через торрент | UTorrent

% Раздел Тема Автор DL S | L
3D Фильмы [ 8 GB ] Новый Человек-паук в 3Д / The Amazing Spider-Man 3D [2012 BDrip 1080p] Anamorph OverUnder / Вертикальная анаморфная стереопара DUB лицензия] marik05 Скачать
1 | 0

28-11-2019 20:33  

Отключить всю рекламу на сайте

24-03-2013 10:27 Новый Человек-паук в 3D Скачать торрент  

Наконец то в хорошем качестве:)pb.wtf



09-01-2014 10:37 Новый Человек-паук в 3D Скачать торрент  

где раздающие,мать их? :shoot2:pb.wtf



    Дорогой пользователь! Огромная просьба, поблагодарите релизера, оцените раздачу и оставьте свои комментарий, если Вы скачали Новый Человек-паук в 3D через торрент бесплатно! Внесите свою лепту в развитие PiratBit!
    Комментировать посты могут только пользователи прошедшие не сложную регистрацию
    Показать сообщения:    

    Новый Человек-паук в 3D через торрент
    Скачать бесплатно Новый Человек-паук в 3D
    Новый Человек-паук в 3D скачать торрент
    Новый Человек-паук в 3D смотреть онлайн
    Cкачать фильм Новый Человек-паук в 3D бесплатно
    Новый Человек-паук в 3D скачать торрент в хорошем качестве
    Новый Человек-паук в 3D смотреть онлайн бесплатно в хорошем качестве


    Вы не можете начинать темы
    Вы не можете отвечать на сообщения
    Вы не можете редактировать свои сообщения
    Вы не можете удалять свои сообщения
    Вы не можете голосовать в опросах
    Вы не можете прикреплять файлы к сообщениям
    Вы можете скачивать файлы