Лицензия

MVO

1

1 сезон

Лицензия

Лицензия

13

MVO

1 сезон

Deluxe Edition

pack

Рекомендуем

30

Repack

ВАЖНО

ВАЖНО

Ghostwire

RePack

jed

RePack

fifa19

RePack

RDR2

RePack

NEED FOR SPEED™ PAYBACK

RePack

Кинопоиск HD

 Острые козырьки 6 сезон

6 сезон

FAR CRY 6

RePack

Лицензия

MVO

1

1 сезон

1 сезон

Лицензия

  

Гнев / Man on Fire (Тони Скотт / Tony Scott) [2004 г., боевик, триллер, драма, BDRip 1080p, Дубляж + Оригинал+Goblin]

Гнев через торрент pb.wtf

Размер: 16.75 GB | Добавлен: 9 лет 6 мес. назад | Торрент скачан:133 раза
Смотреть онлайн Гнев | Скачать   

25-03-2013 11:50 Гнев Скачать торрент  

Гнев / Man on Fire
Год выпуска: 2004
Страна: США, Великобритания Epsilon Motion Pictures, Fox 2000 Pictures, New Regency Pictures, Regency Enterprises, Scott Free Productions
Жанр: боевик, триллер, драма,
Продолжительность: 02:26:07
Перевод: Дубляж + Оригинал+авторский (одноголосый, закадровый / Д.Пучков [Goblin])
Субтитры: Русские Forced (включены по умолчанию) Русские Full Английские Full

Режиссер: Тони Скотт / Tony Scott

В ролях: Дензел Вашингтон, Дакота Фаннинг, Марк Энтони, Рада Митчелл, Кристофер Уокен, Джанкарло Джаннини, Рейчел Тикотин, Хесус Очоа, Микки Рурк, Анджелина Пелаез,

Описание: Состоятельные жители Мехико в панике: всего за шесть дней в городе пропали 24 человека! Бывшего агента ЦРУ Джона Кризи нанимают телохранителем девятилетней дочери промышленника Сэмюэля Рамоса, Питы Рамос. Поначалу Кризи с трудом терпит соседство не по годам развитой девочки.
Но со временем они становятся друзьями. Кризи вновь почувствовал вкус к жизни, но все рушится, когда Питу похищают. Кризи клянется убить любого, кто втянут в похищение Питы. Теперь его никто не остановит…

Качество: BDRip 1080p
Формат: MKV
Видео кодек: MPEG4-AVC
Аудио кодек: AC3
Видео: AVC / [email protected] / 2 pass / 23,976 fps / 1920x800p / 14,5 Mbps
Аудио#1: AC3 / 5.1 ch / 640 kbps / Русский дубляж, BD
Аудио#2: AC3 / 5.1 ch / 640 kbps / Русский авторский, одноголосый - Д.Пучков [Goblin]
Аудио#3: AC3 / 5.1 ch / 640 kbps / Английский original, BD
Релиз от: HDMaNiAcS

скриншот   скриншот   скриншот  
Общее
Уникальный идентификатор : 174708849109970999457479650342354643884 (0x836FB34DBE844B949A1D560896556BAC)
Полное имя : F:Скачка торрентMan.on.Fire.2004.BDRip1080p(HDMaNiAcS).mkv
Формат : Matroska
Версия формата : Version 4 / Version 2
Размер файла : 16,7 Гбайт
Продолжительность : 2 ч. 26 м.
Общий поток : 16,4 Мбит/сек
Название фильма : Man on Fire (2004) by HDMaNiAcS
Дата кодирования : UTC 2013-03-24 06:56:05
Программа кодирования : mkvmerge v6.1.0 ('Old Devil') built on Mar 2 2013 14:32:37
Библиотека кодирования : libebml v1.3.0 + libmatroska v1.4.0

Видео
Идентификатор : 1
Формат : AVC
Формат/Информация : Advanced Video Codec
Профиль формата : [email protected]
Параметр CABAC формата : Да
Параметр ReFrames формата : 5 кадров
Идентификатор кодека : V_MPEG4/ISO/AVC
Продолжительность : 2 ч. 26 м.
Битрейт : 14,5 Мбит/сек
Ширина : 1920 пикселей
Высота : 800 пикселей
Соотношение сторон : 2,40:1
Режим частоты кадров : Постоянный
Частота кадров : 23,976 кадра/сек
Цветовое пространство : YUV
Субдискретизация насыщенности : 4:2:0
Битовая глубина : 8 бит
Тип развёртки : Прогрессивная
Бит/(Пиксели*Кадры) : 0.394
Размер потока : 14,5 Гбайт (86%)
Заголовок : Man on Fire (2004)
Библиотека кодирования : x264 core 114 r1913 5fd3dce
Настройки программы : cabac=1 / ref=5 / deblock=1:-1:-1 / analyse=0x3:0x133 / me=esa / subme=10 / psy=1 / psy_rd=1.00:0.00 / mixed_ref=1 / me_range=24 / chroma_me=1 / trellis=2 / 8x8dct=1 / cqm=0 / deadzone=21,11 / fast_pskip=0 / chroma_qp_offset=-2 / threads=12 / sliced_threads=0 / nr=0 / decimate=1 / interlaced=0 / constrained_intra=0 / bframes=8 / b_pyramid=2 / b_adapt=2 / b_bias=0 / direct=3 / weightb=1 / open_gop=0 / weightp=2 / keyint=250 / keyint_min=23 / scenecut=40 / intra_refresh=0 / rc=2pass / mbtree=0 / bitrate=14500 / ratetol=2.0 / qcomp=0.60 / qpmin=10 / qpmax=69 / qpstep=4 / cplxblur=20.0 / qblur=0.5 / ip_ratio=1.40 / pb_ratio=1.30 / aq=1:1.00
Язык : English
Default : Да
Forced : Нет

Аудио #1
Идентификатор : 2
Формат : AC-3
Формат/Информация : Audio Coding 3
Расширение режима : CM (complete main)
Параметр Endianness формата : Big
Идентификатор кодека : A_AC3
Продолжительность : 2 ч. 26 м.
Вид битрейта : Постоянный
Битрейт : 640 Кбит/сек
Каналы : 6 каналов
Расположение каналов : Front: L C R, Side: L R, LFE
Частота : 48,0 КГц
Битовая глубина : 16 бит
Метод сжатия : С потерями
Размер потока : 669 Мбайт (4%)
Заголовок : AC3 / 5.1 ch / 640 kbps / Русский дубляж, R5
Язык : Russian
Default : Да
Forced : Нет

Аудио #2
Идентификатор : 3
Формат : AC-3
Формат/Информация : Audio Coding 3
Расширение режима : CM (complete main)
Параметр Endianness формата : Big
Идентификатор кодека : A_AC3
Продолжительность : 2 ч. 26 м.
Вид битрейта : Постоянный
Битрейт : 640 Кбит/сек
Каналы : 6 каналов
Расположение каналов : Front: L C R, Side: L R, LFE
Частота : 48,0 КГц
Битовая глубина : 16 бит
Метод сжатия : С потерями
Размер потока : 669 Мбайт (4%)
Заголовок : AC3 / 5.1 ch / 640 kbps / Русский AVO, Goblin [Д.Пучков]
Язык : Russian
Default : Нет
Forced : Нет

Аудио #3
Идентификатор : 4
Формат : AC-3
Формат/Информация : Audio Coding 3
Расширение режима : CM (complete main)
Параметр Endianness формата : Big
Идентификатор кодека : A_AC3
Продолжительность : 2 ч. 26 м.
Вид битрейта : Постоянный
Битрейт : 640 Кбит/сек
Каналы : 6 каналов
Расположение каналов : Front: L C R, Side: L R, LFE
Частота : 48,0 КГц
Битовая глубина : 16 бит
Метод сжатия : С потерями
Размер потока : 669 Мбайт (4%)
Заголовок : AC3 / 5.1 ch / 640 kbps / Английский original, BD
Язык : English
Default : Нет
Forced : Нет

Текст #1
Идентификатор : 5
Формат : UTF-8
Идентификатор кодека : S_TEXT/UTF8
Идентификатор кодека/Информация : UTF-8 Plain Text
Заголовок : Forced
Язык : Russian
Default : Да
Forced : Нет

Текст #2
Идентификатор : 6
Формат : UTF-8
Идентификатор кодека : S_TEXT/UTF8
Идентификатор кодека/Информация : UTF-8 Plain Text
Заголовок : Full
Язык : Russian
Default : Нет
Forced : Нет

Текст #3
Идентификатор : 7
Формат : UTF-8
Идентификатор кодека : S_TEXT/UTF8
Идентификатор кодека/Информация : UTF-8 Plain Text
Заголовок : Full
Язык : English
Default : Нет
Forced : Нет

Меню
00:00:00.000 : en:00:00:00.000
00:05:00.000 : en:00:05:00.000
00:10:00.000 : en:00:10:00.000
00:15:00.000 : en:00:15:00.000
00:20:00.000 : en:00:20:00.000
00:25:00.000 : en:00:25:00.000
00:30:00.000 : en:00:30:00.000
00:35:00.000 : en:00:35:00.000
00:40:00.000 : en:00:40:00.000
00:45:00.000 : en:00:45:00.000
00:50:00.000 : en:00:50:00.000
00:55:00.000 : en:00:55:00.000
01:00:00.000 : en:01:00:00.000
01:05:00.000 : en:01:05:00.000
01:10:00.000 : en:01:10:00.000
01:15:00.000 : en:01:15:00.000
01:20:00.000 : en:01:20:00.000
01:25:00.000 : en:01:25:00.000
01:30:00.000 : en:01:30:00.000
01:35:00.000 : en:01:35:00.000
01:40:00.000 : en:01:40:00.000
01:45:00.000 : en:01:45:00.000
01:50:00.000 : en:01:50:00.000
01:55:00.000 : en:01:55:00.000
02:00:00.000 : en:02:00:00.000
02:05:00.000 : en:02:05:00.000
02:10:00.000 : en:02:10:00.000
02:15:00.000 : en:02:15:00.000
02:20:00.000 : en:02:20:00.000
02:25:00.000 : en:02:25:00.000




Скачать Гнев через торрент https://pic1.kartinco.top/images/21/6s39l1z5cc.jpg Скачать, смотреть онлайн Гнев бесплантно в хорошем качестве Описание: Состоятельные жители Мехико в панике: всего за шесть дней в городе пропали 24 человека! Бывшего агента ЦРУ Джона Кризи нанимают ... 9.9 10 14
Info! Золотая раздача, скачанное не засчитывается.
Торрент: Зарегистрирован [2013-03-25 11:50] · скачан: 133 раз
Статус: √ проверено
Размер: 16.75 GB
Как cкачать? Как скачать Гнев через торрент | UTorrent

% Раздел Тема Автор DL S | L
Фильмы 2001-2005 [ 1.46 GB ] Гнев / Man on Fire | | BDRip Devos Скачать
1 | 0
Фильмы (HD 720p, 1080p) (48-60 fps) [ 17.49 GB ] Гнев / Man on Fire | Дубляж | 1080p / 60 FPS Tiberiumsun69 Скачать
3 | 1
Фильмы [HD 720p, 1080p] (Хороший звук DUB, MVO) [ 16.42 GB ] Гнев / Man on Fire | DUB+AVO+MVO+DVO | 720p Kavasar Скачать
1 | 0
Фильмы 2001-2005 [ 2.18 GB ] Гнев / Man on Fire | DUB + Sub | BDRip sokol_ok Скачать
1 | 0

28-11-2019 20:33  

Отключить вcю реклaмy на сайте

25-03-2013 12:09 Гнев Скачать торрент  

Шикарный фильм!



25-03-2013 13:51 Гнев Скачать торрент  

ФИЛЬМ АФИГЕННЫЙ Тони Скотт и его брат Ридли Скотт лучшие режисёры. Эх Тони зачем ты ушёл от нас так рано((((( мог снимать и дальше.



30-09-2014 09:06 Гнев Скачать торрент  

Это шедевр!!! Must have!!!



06-01-2015 16:25 Гнев Скачать торрент  

Станьте на раздачу, будьте добры)



02-05-2015 10:50 Гнев Скачать торрент  

Встаньте пжлст на раздачу



    Дорогой пользователь! Огромная просьба, поблагодарите релизера, оцените раздачу и оставьте свои комментарий, если Вы скачали Гнев через торрент бесплатно!!
    Комментировать посты могут только пользователи прошедшие не сложную регистрацию
    Показать сообщения:    


    Гнев через торрент
    Скачать бесплатно Гнев
    Гнев скачать торрент
    Гнев смотреть онлайн
    Cкачать фильм Гнев бесплатно
    Гнев скачать торрент в хорошем качестве
    Гнев смотреть онлайн бесплатно в хорошем качестве
    Вы не можете начинать темы
    Вы не можете отвечать на сообщения
    Вы не можете редактировать свои сообщения
    Вы не можете удалять свои сообщения
    Вы не можете голосовать в опросах
    Вы не можете прикреплять файлы к сообщениям
    Вы можете скачивать файлы