2 сезон

iTunes

MVO

1

2 сезон

iTunes

iTunes

1 сезон

RePack

30

Новинка

ВАЖНО

ИГРА 18+

pack

RePack

MK11
pack

Легкие деньги

RePack

jed

RePack

fifa19

RePack

RDR2

RePack

NEED FOR SPEED™ PAYBACK

4 сезон

9 сезон

Бесстыжие 9 сезон

Все сериалы

все сериалы на PB.wtf

RePack

FAR CRY 5

Anonymous, доброй ночи, мы не успеваем собрать деньги на оплату серверов за декабрь и январь, помогите нам пожалуйста в это трудное время. В качестве благодарности мы отключим Вам всю рекламу на сайте (укажите свой ник в строку Ваше имя)!

×
  
Magnet ссылка

Колледж / CooLLege (Дэб Хэйгэн) [2008 г., комедия, DVDRip, MVO, лицензия] pb.wtf

Колледж через торрент pb.wtf

Размер: 371 MB | Добавлен: 7 лет 9 мес. назад | Торрент скачан:24 раза
Скачать  

26-03-2013 09:18 Колледж Скачать торрент  

Колледж / CooLLege
Год выпуска: 2008
Страна: США
Жанр: комедия,
Продолжительность: 94 мин. / 01:34
Перевод: Профессиональный многоголосый, Лицензия
Тип релиза: Пиратка
Субтитры: Отсутствуют

Режиссер: Дэб Хэйгэн
Продюссер: Кимберли С. Андерсон, Джули Дэнжел, Малкольм Петал
Сценарий: Дэн Каллахан, Адам Эллисон

Бюджет: $7 000 000
Премьера в мире: 21 августа 2008



В ролях: Дрейк Белл, Эндрю Колдуэлл, Эндри Мосс, Кэролин Мосс, Венди Талли, Кевин Ковейс, Алона Тал, Райан Пинкстон, Брэнди Коулмэн, Джессика Хип,

Описание: Главное правило первокурсника: не нажить себе врагов в первый же день в колледже. Похоже, Кэвин и его друзья не знали об этом… В первый же день ребятам удается познакомиться с самыми красивыми студентками и тем самым навлечь на себя гнев лидера студенческого братства. С этого момента скучная на первый взгляд поездка превращается в череду злоключений и умопомрачительных приключений.

Пиво из системы пожаротушения, суперклей на унитазах — все это лишь малая часть сюрпризов, которые ожидают лидера студенческого братства, а заодно и весь колледж по приезду Кэвина и его друзей. Ведь скучное времяпрепровождение — это явно не про чуваков!

Качество: DVDRip
Формат: AVI
Видео кодек: DivX
Аудио кодек: AC3
Видео: 440 Кбит/сек 640х350 пикселей 24,987 кадров/сек
Аудио#1: 128 Кбит/сек , 2 канала , 44,1 КГц




Формат : MPEG-4
Профиль формата : Base Media
Идентификатор кодека : isom
Размер файла : 371 Мбайт
Продолжительность : 1 ч. 30 м.
Режим общего битрейта : Переменный
Общий поток : 573 Кбит/сек
Программа кодирования : Lavf52.40.0

Видео
Идентификатор : 1
Формат : AVC
Формат/Информация : Advanced Video Codec
Профиль формата : Baseline@L3.0
Параметр CABAC формата : Нет
Параметр ReFrames формата : 1 кадр
Идентификатор кодека : avc1
Идентификатор кодека/Информация : Advanced Video Coding
Продолжительность : 1 ч. 30 м.
Битрейт : 440 Кбит/сек
Ширина : 640 пикселей
Высота : 350 пикселей
Соотношение сторон : 1,85:1
Режим частоты кадров : Переменный
Частота кадров : 24,987 кадров/сек
Частота кадров в оригинале : 25,000 кадров/сек
Минимальная частота кадров : 12,500 кадров/сек
Максимальная частота кадров : 25,000 кадров/сек
Цветовое пространство : YUV
Субдискретизация насыщенности : 4:2:0
Битовая глубина : 8 бит
Тип развёртки : Прогрессивная
Бит/(Пиксели*Кадры) : 0.079
Размер потока : 285 Мбайт (77%)
Библиотека кодирования : x264 core 79

Аудио
Идентификатор : 2
Формат : AAC
Формат/Информация : Advanced Audio Codec
Профиль формата : LC
Идентификатор кодека : 40
Продолжительность : 1 ч. 30 м.
Вид битрейта : Переменный
Битрейт : 128 Кбит/сек
Каналы : 2 канала
Расположение каналов : Front: L R
Частота : 44,1 КГц
Метод сжатия : С потерями
Размер потока : 82,7 Мбайт (22%)


комедия,Колледж 2008,Колледж, скачать торрент


pb.wtf



Скачать Колледж через торрент http://pic.kartinco.top/images/2/wnn9mp13z4.jpg Скачать фильм Колледж через торрент бесплантно в хорошем качестве Описание: Главное правило первокурсника: не нажить себе врагов в первый же день в колледже. Похоже, Кэвин и его друзья не знали об этом… В ... 6.4 10 5
Info! Золотая раздача, скачанное не засчитывается.
Торрент: Зарегистрирован [2013-03-26 09:18] · скачан: 24 раз
Статус: √ проверено
Размер: 371 MB
Как cкачать? Как скачать Колледж через торрент | UTorrent

28-11-2019 20:33  

Отключить всю рекламу на сайте

    Дорогой пользователь! Огромная просьба, поблагодарите релизера, оцените раздачу и оставьте свои комментарий, если Вы скачали Колледж через торрент бесплатно! Внесите свою лепту в развитие PiratBit!
    Комментировать посты могут только пользователи прошедшие не сложную регистрацию
    Показать сообщения:    

    Колледж через торрент
    Скачать бесплатно Колледж
    Колледж скачать торрент
    Колледж смотреть онлайн
    Cкачать фильм Колледж бесплатно
    Колледж скачать торрент в хорошем качестве
    Колледж смотреть онлайн бесплатно в хорошем качестве


    Вы не можете начинать темы
    Вы не можете отвечать на сообщения
    Вы не можете редактировать свои сообщения
    Вы не можете удалять свои сообщения
    Вы не можете голосовать в опросах
    Вы не можете прикреплять файлы к сообщениям
    Вы можете скачивать файлы