Доктор Стрэндж

Лицензия

Добыча

Дубляж

Дом дракона

1 сезон

Тор

Дубляж

В эфире

Дубляж

Там, где раки поют

MVO

Властелин колец

1 сезон

GLOBAL

pack

Рекомендуем

30

Пиратка

ВАЖНО

ВАЖНО

Ghostwire

Пиратка

jed

RePack

nioh2

RePack

RDR2

RePack

NEED FOR SPEED™ PAYBACK

RePack

скачать торрент

Кинопоиск HD

Острые козырьки 6 сезон

6 сезон

FAR CRY 6

RePack

скачать торрент

Лицензия

скачать торрент

MVO

1

1 сезон

скачать торрент

1 сезон

скачать торрент

Лицензия

  

Мебиус / Mobius (Эрик Рошан) [2013 г., Зарубежные фильмы, Драма, Триллер, Новинка, CamRip, Профессиональный двухголосый]

Мебиус через торрент pb.wtf

Размер: 436 MB | Добавлен: 9 лет 8 мес. назад | Торрент скачан:29 раз
| Скачать   

26-03-2013 11:23 Мебиус Скачать торрент  

Мебиус / Mobius
Год выпуска: 2013
Страна: Франция, Бельгия, Люксембург
Жанр: Зарубежные фильмы, Драма, Триллер, Новинка,
Продолжительность: 103 мин. / 01:43
Перевод: Профессиональный двухголосый
Тип релиза: Пиратка
Субтитры: Отсутствуют

Режиссер: Эрик Рошан
Продюссер: Кристоф Сервони, Эрик Жюериан, Матиас Рубин
Сценарий: Эрик Рошан

Бюджет: -
Премьера в мире: 17 февраля 2013



В ролях: Жан Дюжарден, Сесиль Де Франс, Эмили Декьенн, Алексей Горбунов, Владимир Меньшов, Тим Рот, Джон Линч, Бранка Катич, Дин Константин Гэйгани, Дмитрий Назаров,

Описание: Герой фильма «Мебиус» Григорий Любов, агент ФСБ под кодовым псевдонимом «Моисей», отличается выдержкой и проницательным умом. Офицер не привык давать волю чувствам и известен в своей конторе как сотрудник с мрачным и непреклонным нравом. Именно поэтому начальство поручает Любову особое оперативное задание – уничтожить финансовую империю российского бизнесмена Ивана Ростовского, подозреваемого в фантастических махинациях.

Моисей отправляется в Монако, где начинает слежку за преступным олигархом. В рамках расследования агентам ФСБ помогает завербованная разведчиками помощница Ростовского, финансовый аналитик Элис, осведомленная о хитрых схемах своего патрона. Разумеется, Любову не положено лично контактировать с законспирированным информатором, однако, заподозрив девушку в сотрудничестве с ЦРУ, офицер встречается с тайной агентессой. Страсть, неожиданно вспыхнувшая между ними, мало-помалу становится серьезной проблемой для русского разведчика, ранее не ведавшего нежных чувств, и помехой в исполнении служебного долга...

Качество: CamRip
Формат: AVI
Видео кодек: DivX
Аудио кодек: AC3
Видео: 512 Кбит/сек 640х192 пикселей 25,000 кадров/сек
Аудио#1: 69,9 Кбит/сек 2 канала 48,0 КГц




Формат : MPEG-4
Профиль формата : Base Media
Идентификатор кодека : isom
Размер файла : 436 Мбайт
Продолжительность : 1 ч. 43 м.
Общий поток : 586 Кбит/сек
Программа кодирования : Lavf55.0.100

Видео
Идентификатор : 1
Формат : AVC
Формат/Информация : Advanced Video Codec
Профиль формата : [email protected]
Параметр CABAC формата : Нет
Параметр ReFrames формата : 5 кадров
Идентификатор кодека : avc1
Идентификатор кодека/Информация : Advanced Video Coding
Продолжительность : 1 ч. 43 м.
Битрейт : 512 Кбит/сек
Ширина : 640 пикселей
Высота : 192 пикселя
Соотношение сторон : 3,333
Режим частоты кадров : Постоянный
Частота кадров : 25,000 кадров/сек
Цветовое пространство : YUV
Субдискретизация насыщенности : 4:2:0
Битовая глубина : 8 бит
Тип развёртки : Прогрессивная
Бит/(Пиксели*Кадры) : 0.167
Размер потока : 381 Мбайт (87%)
Библиотека кодирования : x264 core 130 r2274 c832fe9

Аудио
Идентификатор : 2
Формат : AAC
Формат/Информация : Advanced Audio Codec
Профиль формата : LC
Идентификатор кодека : 40
Продолжительность : 1 ч. 43 м.
Duration_LastFrame : -11 мс.
Вид битрейта : Постоянный
Битрейт : 69,9 Кбит/сек
Каналы : 2 канала
Расположение каналов : Front: L R
Частота : 48,0 КГц
Метод сжатия : С потерями
Размер потока : 52,0 Мбайт (12%)




Скачать Мебиус через торрент https://pic1.kartinco.top/images/21/td2y6sbzs8.jpg Скачать, смотреть онлайн Мебиус бесплантно в хорошем качестве Описание: Герой фильма «Мебиус» Григорий Любов, агент ФСБ под кодовым псевдонимом «Моисей», отличается выдержкой и проницательным умом. ... 9 10 1
Info! Золотая раздача, скачанное не засчитывается.
Торрент: Зарегистрирован [2013-03-26 11:23] · скачан: 29 раз
Статус: T временная
Размер: 436 MB
Как cкачать? Как скачать Мебиус через торрент | UTorrent

% Раздел Тема Автор DL S | L
Фильмы [HD 720p, 1080p] (Хороший звук DUB, MVO) [ 10.3 GB ] Мёбиус / Möbius | Дубляж | 1080p, Дубляж, лицензия Ворон Скачать
1 | 0
Фильмы [HD 720p, 1080p] (Хороший звук DUB, MVO) [ 4.66 GB ] Мёбиус / Möbius | Дубляж | 720p, Дубляж, лицензия Ворон Скачать
1 | 0
Фильмы 2013 [DVDrip, WEB-DLRip, HDrip] [ 1.46 GB ] Мёбиус / Mobius | Дубляж | DVDRip, Дубляж Drakosha Скачать
1 | 0
Фильмы (DVD фильмы) [ 4.24 GB ] Мёбиус / Mobius | | 2013, триллер, драма, DVD5 voovaz Скачать
1 | 0
Фильмы 2013 [DVDrip, WEB-DLRip, HDrip] [ 2.18 GB ] Мёбиус / Mobius | Дубляж | BDRip-AVC, Дубляж, лицензия МАКС1 Скачать
1 | 0
Фильмы 2013 [DVDrip, WEB-DLRip, HDrip] [ 2.1 GB ] Мёбиус / Möbius | Дубляж | HDRip, Дубляж, лицензия coc900 Скачать
1 | 0

28-11-2019 20:33  


Отключить вcю реклaмy на сайте, в т.ч. и в плеере онлайн просмотра!

26-03-2013 11:28 Мебиус Скачать торрент  

Будем посмотреть.



    Дорогой пользователь! Огромная просьба, поблагодарите релизера, оцените раздачу и оставьте свои комментарий, если Вы скачали Мебиус через торрент бесплатно!!
    Комментировать посты могут только пользователи прошедшие не сложную регистрацию
    Показать сообщения:    


    Мебиус через торрент
    Скачать бесплатно Мебиус
    Мебиус скачать торрент
    Мебиус смотреть онлайн
    Cкачать фильм Мебиус бесплатно
    Мебиус скачать торрент в хорошем качестве
    Мебиус смотреть онлайн бесплатно в хорошем качестве
    Вы не можете начинать темы
    Вы не можете отвечать на сообщения
    Вы не можете редактировать свои сообщения
    Вы не можете удалять свои сообщения
    Вы не можете голосовать в опросах
    Вы не можете прикреплять файлы к сообщениям
    Вы можете скачивать файлы
    Мебиус / Mobius [2013 г., Зарубежные фильмы, Драма, Триллер, Новинка, CamRip, Профессиональный двухголосый] смотреть онлайн, скачать торрент picoco.icu