1 сезон

3 сезон

iTunes

1

iTunes

MVO

iTunes

13

1 сезон

RePack

30

Deluxe

pack

Лицензия

ВАЖНО

ИГРА 18+

pack

RePack

MK11

RePack

jed

RePack

fifa19

RePack

RDR2

RePack

NEED FOR SPEED™ PAYBACK

4 сезон

9 сезон

Бесстыжие 9 сезон

Все сериалы

все сериалы на PB.wtf

RePack

FAR CRY 5

Anonymous, доброй ночи, мы катастрофически не успеваем собрать деньги на оплату серверов, помогите нам пожалуйста 5,10,15р., для нас важна любая помощь . В качестве благодарности мы отключим Вам всю рекламу на сайте (укажите свой ник в строку Ваше имя)!

×
  
Magnet ссылка

Любовный переплет / The Oranges (Джулиан Фарино / Julian Farino) [2011, драма, мелодрама, комедия, DVD9] R5 pb.wtf

Любовный переплет через торрент pb.wtf

Размер: 6.32 GB | Добавлен: 8 лет 3 мес. назад | Торрент скачан:17 раз
Скачать  

27-03-2013 06:51 Любовный переплет Скачать торрент  


Любовный переплет / The Oranges
«Интриги и скандалы - всё как обычно»
Страна: США
Студия: Likely Story, Olympus Pictures
Жанр: драма, мелодрама, комедия
Год выпуска: 2011
Мировая премьера: 10 сентября 2011
Российская премьера: 13 декабря 2012
Дата выхода DVD: 1 апреля 2013
Дата выхода Blu-Ray: 1 апреля 2013
Продолжительность: 01:26:53
Перевод: Профессиональный (дублированный) [Лицензия]
Cубтитры: русские
Оригинальная аудиодорожка: английский
Режиссер: Джулиан Фарино / Julian Farino
В ролях: Хью Лори, Кэтрин Кинер, Оливер Платт, Эллисон Дженни, Алиа Шокат, Адам Броди, Лейтон Мистер, Бойд Холбрук, Тим Гини, Лукас Папаэлиас
Описание: Семьи Острофф и Уоллинг дружат между собой и живут по соседству, на Орандж Драйв, как раз напротив. Дочь-транжирка, Нина Острофф, возвращается домой на День Благодарения, после пятилетнего отсутствия, недавно порвав с женихом. Вместо того, чтобы заинтересоваться успешным сыном своих соседей, Тоби Уоллингом, что устроило бы обе семьи, она обращает внимание на его отца и лучшего друга своих родителей, Дэвида Уоллинга. Когда романтические отношения между Ниной и Дэвидом становится невозможно игнорировать, жизнь обеих семей приходит в полный беспорядок.
Бонусы: Анонсы

Релиз группы:
Качество: DVD9 R5
Формат: DVD-Video
Видео кодек: MPEG2
Аудио кодек: AC3 + DTS
Видео: PAL 16:9 (720x576(0.607)) MPEG Video, 25,000 кадр/сек, 6293 Кбит/сек
Аудио #1: Russian (Dolby AC3, 6 ch) 448 Кбит/сек, 48,0 КГц
Аудио #2: Russian (DTS, 5 ch) 1536 Кбит/сек, 48,0 КГц
Аудио #3: English (Dolby AC3, 6 ch) 448 Кбит/сек, 48,0 КГц



Title: Ljubovnyj.pereplet.2011.DVD9
Size: 6.32 Gb ( 6 631 618,00 KBytes ) - DVD-9
Enabled regions: 1, 2, 3, 4, 5, 6, 7, 8

VTS_01 :
Play Length: 00:00:16
Video: PAL 4:3 (720x576) VBR
Audio:
English (Dolby AC3, 2 ch)

VTS_02 :
Play Length: 00:00:07
Video: PAL 16:9 (720x576) VBR, Auto Letterboxed
Audio:
English (MPEG1, 2 ch)

VTS_03 :
Play Length: 00:00:15
Video: PAL 16:9 (720x576) VBR, Auto Letterboxed
Audio:
Russian (Dolby AC3, 6 ch)
Russian (Dolby AC3, 6 ch)
English (Dolby AC3, 6 ch)
Subtitles:
Russian

VTS_04 :
Play Length: 01:26:53
Video: PAL 16:9 (720x576) VBR, Auto Letterboxed
Audio:
Russian (Dolby AC3, 6 ch)
Russian (DTS, 5 ch)
English (Dolby AC3, 6 ch)
Subtitles:
Russian

VTS_05 :
Play Length: 00:02:00
Video: PAL 16:9 (720x576) VBR, Auto Letterboxed
Audio:
Russian (LinearPCM, 2 ch)

VTS_06 :
Play Length: 00:02:19
Video: PAL 16:9 (720x576) VBR, Auto Letterboxed
Audio:
Russian (LinearPCM, 2 ch)

VTS_07 :
Play Length: 00:02:24
Video: PAL 16:9 (720x576) VBR, Auto Letterboxed
Audio:
Russian (LinearPCM, 2 ch)

VTS_08 :
Play Length: 00:01:50
Video: PAL 16:9 (720x576) VBR, Auto Letterboxed
Audio:
Russian (LinearPCM, 2 ch)

VTS_09 :
Play Length: 00:02:10
Video: PAL 16:9 (720x576) VBR, Auto Letterboxed
Audio:
Russian (LinearPCM, 2 ch)

VTS_10 :
Play Length: 00:02:00
Video: PAL 16:9 (720x576) VBR, Auto Letterboxed
Audio:
Russian (LinearPCM, 2 ch)

VTS_11 :
Play Length: 00:01:30
Video: PAL 16:9 (720x576) VBR, Auto Letterboxed
Audio:
Russian (LinearPCM, 2 ch)

VTS_12 :
Play Length: 00:01:19
Video: PAL 16:9 (720x576) VBR, Auto Letterboxed
Audio:
Russian (LinearPCM, 2 ch)

VTS_13 :
Play Length: 00:02:17
Video: PAL 16:9 (720x576) VBR, Auto Letterboxed
Audio:
Russian (LinearPCM, 2 ch)

* Menus Information *

VIDEO_TS Menu
Video:
PAL 4:3 (720x576) VBR
English Language Unit :
Title Menu

VTS_01 Menu
Video:
PAL 16:9 (720x576) VBR
Auto Letterboxed
Audio:
Not specified (LinearPCM, 2 ch)
English Language Unit :
Root Menu

VTS_02 Menu
Video:
PAL 4:3 (720x576) VBR
English Language Unit :
Root Menu

VTS_03 Menu
Video:
PAL 4:3 (720x576) VBR
English Language Unit :
Root Menu

VTS_04 Menu
Video:
PAL 4:3 (720x576) VBR
English Language Unit :
Root Menu

VTS_05 Menu
Video:
PAL 4:3 (720x576) VBR
English Language Unit :
Root Menu

VTS_06 Menu
Video:
PAL 4:3 (720x576) VBR
English Language Unit :
Root Menu

VTS_07 Menu
Video:
PAL 4:3 (720x576) VBR
English Language Unit :
Root Menu

VTS_08 Menu
Video:
PAL 4:3 (720x576) VBR
English Language Unit :
Root Menu

VTS_09 Menu
Video:
PAL 4:3 (720x576) VBR
English Language Unit :
Root Menu

VTS_10 Menu
Video:
PAL 4:3 (720x576) VBR
English Language Unit :
Root Menu

VTS_11 Menu
Video:
PAL 4:3 (720x576) VBR
English Language Unit :
Root Menu

VTS_12 Menu
Video:
PAL 4:3 (720x576) VBR
English Language Unit :
Root Menu

VTS_13 Menu
Video:
PAL 4:3 (720x576) VBR
English Language Unit :
Root Menu
Общее
Полное имя : L:Новинки 2013Ljubovnyj.pereplet.2011.DVD9VIDEO_TSVTS_04_2.VOB
Формат : MPEG-PS
Размер файла : 1024 Мбайт
Продолжительность : 16 м.
Режим общего битрейта : Переменный
Общий поток : 8875 Кбит/сек

Видео
Идентификатор : 224 (0xE0)
Формат : MPEG Video
Версия формата : Version 2
Профиль формата : Main@Main
Параметр BVOP формата : Да
Параметр матрицы формата : По умолчанию
Параметр GOP формата : M=3, N=12
Продолжительность : 16 м.
Вид битрейта : Переменный
Битрейт : 6293 Кбит/сек
Максимальный битрейт : 7500 Кбит/сек
Ширина : 720 пикселей
Высота : 576 пикселей
Соотношение сторон : 16:9
Частота кадров : 25,000 кадров/сек
Стандарт вещания : PAL
Цветовое пространство : YUV
Субдискретизация насыщенности : 4:2:0
Битовая глубина : 8 бит
Тип развёртки : Прогрессивная
Метод сжатия : С потерями
Бит/(Пиксели*Кадры) : 0.607
Размер потока : 726 Мбайт (71%)

Аудио #1
Идентификатор : 189 (0xBD)-128 (0x80)
Формат : AC-3
Формат/Информация : Audio Coding 3
Расширение режима : CM (complete main)
Параметр Endianness формата : Big
Режим смешивания : DVD-Video
Продолжительность : 16 м.
Вид битрейта : Постоянный
Битрейт : 448 Кбит/сек
Каналы : 6 каналов
Расположение каналов : Front: L C R, Side: L R, LFE
Частота : 48,0 КГц
Битовая глубина : 16 бит
Метод сжатия : С потерями
Задержка видео : -512 мс.
Размер потока : 51,7 Мбайт (5%)

Аудио #2
Идентификатор : 189 (0xBD)-130 (0x82)
Формат : AC-3
Формат/Информация : Audio Coding 3
Расширение режима : CM (complete main)
Параметр Endianness формата : Big
Режим смешивания : DVD-Video
Продолжительность : 16 м.
Вид битрейта : Постоянный
Битрейт : 448 Кбит/сек
Каналы : 6 каналов
Расположение каналов : Front: L C R, Side: L R, LFE
Частота : 48,0 КГц
Битовая глубина : 16 бит
Метод сжатия : С потерями
Задержка видео : -512 мс.
Размер потока : 51,7 Мбайт (5%)

Аудио #3
Идентификатор : 189 (0xBD)-137 (0x89)
Формат : DTS
Формат/Информация : Digital Theater Systems
Режим : 16
Параметр Endianness формата : Big
Режим смешивания : DVD-Video
Продолжительность : 16 м.
Вид битрейта : Постоянный
Битрейт : 1510 Кбит/сек
Каналы : 6 каналов
Расположение каналов : Front: L C R, Side: L R, LFE
Частота : 48,0 КГц
Битовая глубина : 16 бит
Метод сжатия : С потерями
Задержка видео : -544 мс.
Размер потока : 174 Мбайт (17%)

Текст #1
Идентификатор : 189 (0xBD)-33 (0x21)
Формат : RLE
Формат/Информация : Run-length encoding
Режим смешивания : DVD-Video
Продолжительность : 16 м.
Задержка видео : 1 с. 500 мс.

Текст #2
Идентификатор : 189 (0xBD)-34 (0x22)
Формат : RLE
Формат/Информация : Run-length encoding
Режим смешивания : DVD-Video
Продолжительность : 16 м.
Задержка видео : 1 с. 500 мс.










pb.wtf



Скачать Любовный переплет через торрент http://s020.radikal.ru/i716/1303/e2/e64e38dd6bbb.jpg Скачать фильм Любовный переплет через торрент бесплантно в хорошем качестве Описание: Семьи Острофф и Уоллинг дружат между собой и живут по соседству, на Орандж Драйв, как раз напротив. Дочь-транжирка, Нина Острофф, ... 10 10 3
Info! Золотая раздача, скачанное не засчитывается.
Торрент: Зарегистрирован [2013-03-27 06:51] · скачан: 17 раз
Статус: √ проверено
Размер: 6.32 GB
Как cкачать? Как скачать Любовный переплет через торрент | UTorrent

28-11-2019 20:33  

Отключить всю рекламу на сайте

    Дорогой пользователь! Огромная просьба, поблагодарите релизера, оцените раздачу и оставьте свои комментарий, если Вы скачали Любовный переплет через торрент бесплатно! Внесите свою лепту в развитие PiratBit!
    Комментировать посты могут только пользователи прошедшие не сложную регистрацию
    Показать сообщения:    

    Любовный переплет через торрент
    Скачать бесплатно Любовный переплет
    Любовный переплет скачать торрент
    Любовный переплет смотреть онлайн
    Cкачать фильм Любовный переплет бесплатно
    Любовный переплет скачать торрент в хорошем качестве
    Любовный переплет смотреть онлайн бесплатно в хорошем качестве


    Вы не можете начинать темы
    Вы не можете отвечать на сообщения
    Вы не можете редактировать свои сообщения
    Вы не можете удалять свои сообщения
    Вы не можете голосовать в опросах
    Вы не можете прикреплять файлы к сообщениям
    Вы можете скачивать файлы