Ссылка на приватное зеркало нашего сайта всего за 1$. Внимание количество ограничено!!!

2 сезон

iTunes

1 сезон

1

iTunes

iTunes

iTunes

1 сезон

RePack

30

ИГРА 18+

pack

ВАЖНО

!!Акция!!

Alien_RageХит недели

RePack

MK11
pack

Забери бонус

RePack

jed

!!Акция!!

Alien_Rage

RePack

fifa19

RePack

Assassins Creed: Odyssey

RePack

NEED FOR SPEED™ PAYBACK

4 сезон

9 сезон

Бесстыжие 9 сезон

Все сериалы

все сериалы на PB.wtf

RePack

FAR CRY 5
  

Что творят мужчины! (Сарик Андреасян) [2013 г., Комедия, BDRip, лицензия] pb.wtf

Что творят мужчины! через торрент pb.wtf

Размер: 1.46 GB | Добавлен: 7 лет 6 мес. назад | Торрент скачан:804 раза
Скачать  

22-03-2013 12:30 Что творят мужчины! Скачать торрент  

Что творят мужчины!Год выпуска: 2013
Страна: Россия
Жанр: Комедия
Продолжительность: 01:26:36
Тип релиза: Лицензия
Субтитры: Отсутствуют
Режиссер: Сарик Андреасян
В ролях: Таир Мамедов, Константин Крюков, Роман Юнусов, Гавриил Гордеев, Равшана Куркова, Анна Хилькевич, Кристина Асмус, Наталия Медведева, Екатерина Скулкина, Даша Астафьева.,
Дата мировой премьеры: 28 февраля 2013
Дата российской премьеры: 28 февраля 2013, «Каропрокат»
Дата выхода DVD релиза: 25 марта 2013, «Новый Диск»
Дата выхода Blu-Ray релиза: 25 марта 2013, «Новый Диск»

Описание: Неприступные женщины, полмиллиона долларов и четверо героев которым предстоит принять участие в игре «Секс-лото», организованное экстравагантным миллионером. Суть игры — за пять дней соблазнить как можно больше женщин на морском курорте. Получив задания, великолепная четверка бросается в бой.

Но все цели совсем не простые — бабушка, жена олигарха, девственница, феминистка, сектантка — и приз получит только лучший. Каждый применит свой фирменный арсенал, и все будут близки к тому, чтобы получить заветный куш, записав новых жертв в список своих мужских побед. Но неожиданно в «дело секса» вмешается любовь.
Качество: BDRip |исходник: Blu-ray Disc [RUS]|
Формат: AVI
Видео кодек: XviD
Аудио кодек: AC3
Видео: 704x320 (2.37:1), 24.000 fps, XviD 65 ~1950 kbps avg, 0.361 bit/pixel
Аудио#1: 48 kHz, AC3 Dolby Digital, 3/2 (L,C,R,l,r) + LFE ch, 448.00 kbps Constant
Релиз от:
"Скриншоты"скриншот   скриншот   скриншот   скриншот   скриншот   скриншот  

Код:

General
Complete name : Chto.tvorjat.muzhchiny.2013.O.BDRip.1.45GB_by_Yarmak23.avi
Format : AVI
Format/Info : Audio Video Interleave
File size : 1.46 GiB
Duration : 1h 26mn
Overall bit rate : 2 408 Kbps
Writing application : VirtualDubModRus 1.5.10.2 (build 2542/release)
Writing library : VirtualDubMod build 2542/release

Video
ID : 0
Format : MPEG-4 Visual
Format profile : Advanced Simple@L5
Format settings, BVOP : 1
Format settings, QPel : No
Format settings, GMC : No warppoints
Format settings, Matrix : Custom
Codec ID : XVID
Codec ID/Hint : XviD
Duration : 1h 26mn
Bit rate : 1 950 Kbps
Width : 704 pixels
Height : 320 pixels
Display aspect ratio : 2.2:1
Frame rate : 24.000 fps
Color space : YUV
Chroma subsampling : 4:2:0
Bit depth : 8 bits
Scan type : Progressive
Compression mode : Lossy
Bits/(Pixel*Frame) : 0.361
Stream size : 1.18 GiB (81%)
Writing library : XviD 65

Audio
ID : 1
Format : AC-3
Format/Info : Audio Coding 3
Mode extension : CM (complete main)
Format settings, Endianness : Big
Codec ID : 2000
Duration : 1h 26mn
Bit rate mode : Constant
Bit rate : 448 Kbps
Channel(s) : 6 channels
Channel positions : Front: L C R, Side: L R, LFE
Sampling rate : 48.0 KHz
Bit depth : 16 bits
Compression mode : Lossy
Stream size : 278 MiB (19%)
Alignment : Split accross interleaves
Interleave, duration : 42 ms (1.00 video frame)
Interleave, preload duration : 500 ms



pb.wtf



Скачать Что творят мужчины! через торрент http://pic.kartinco.top/images/2/f18652ymzx.jpg Скачать фильм Что творят мужчины! через торрент бесплантно в хорошем качестве Описание: Неприступные женщины, полмиллиона долларов и четверо героев которым предстоит принять участие в игре «Секс-лото», организованное ... 8.5 10 21
Info! Золотая раздача, скачанное не засчитывается.
Торрент: Зарегистрирован [2013-03-22 12:30] · скачан: 804 раз
Статус: √ проверено
Размер: 1.46 GB
Как cкачать? Как скачать Что творят мужчины! через торрент | qTorrent

% Раздел Тема Автор DL S | L
Наши фильмы (HD, WEB-DL 720p, 1080p) [ 5.53 GB ] Что творят мужчины! [2013 BDRip 1080p лицензия] МАКС1 Скачать
1 | 0
Наши новые фильмы 2015 [ 1.37 GB ] Что творят мужчины! 2 [2015 WEB-DLRip Ворон Скачать
1 | 0
T Наши фильмы (HD, WEB-DL 720p, 1080p) [ 2.63 GB ] Что творят мужчины! 2 [2015 WEB-DL 720p] Ворон Скачать
1 | 0
T Наши фильмы (HD, WEB-DL 720p, 1080p) [ 3.07 GB ] Что творят мужчины! 2 [2015 WEB-DL 1080p] Ворон Скачать
1 | 0
Фильмы 2012 [ 1.36 GB ] Что творят немецкие мужчины / Mann tut was Mann kann [2012 Германия HDRip [Чистый звук] Ворон Скачать
1 | 0
Фильмы 2012 [ 1.46 GB ] Что творят немецкие мужчины / Mann tut was Mann kann [ 2012 Германия HDRip ] VO - [Артём Белоконский] Ворон Скачать
1 | 0
Наши новые фильмы 2013 [ 1.37 GB ] Что творят мужчины! [2013 DVDRip лицензия] _Alessandro_ Скачать
1 | 0

28-11-2019 20:33  

Отключить всю рекламу на сайте

    Дорогой пользователь! Огромная просьба, поблагодарите релизера, оцените раздачу и оставьте свои комментарий, если Вы скачали Что творят мужчины! через торрент бесплатно! Внесите свою лепту в развитие PiratBit!
    Комментировать посты могут только пользователи прошедшие не сложную регистрацию
    Показать сообщения:    

    Что творят мужчины! через торрент
    Скачать бесплатно Что творят мужчины!
    Что творят мужчины! скачать торрент
    Что творят мужчины! смотреть онлайн
    Cкачать фильм Что творят мужчины! бесплатно
    Что творят мужчины! скачать торрент в хорошем качестве
    Что творят мужчины! смотреть онлайн бесплатно в хорошем качестве


    Вы не можете начинать темы
    Вы не можете отвечать на сообщения
    Вы не можете редактировать свои сообщения
    Вы не можете удалять свои сообщения
    Вы не можете голосовать в опросах
    Вы не можете прикреплять файлы к сообщениям
    Вы можете скачивать файлы