Ссылка на приватное зеркало нашего сайта всего за 1$. Внимание количество ограничено!!!

2 сезон

iTunes

1 сезон

1

iTunes

iTunes

iTunes

1 сезон

RePack

30

ИГРА 18+

pack

ВАЖНО

!!Акция!!

Alien_RageХит недели

RePack

MK11
pack

Забери бонус

RePack

jed

!!Акция!!

Alien_Rage

RePack

fifa19

RePack

Assassins Creed: Odyssey

RePack

NEED FOR SPEED™ PAYBACK

4 сезон

9 сезон

Бесстыжие 9 сезон

Все сериалы

все сериалы на PB.wtf

RePack

FAR CRY 5
  

Сексдрайв / Sex Drive (Шон Андерс) [2008 г., мелодрама, комедия, приключения, BDRip 720p, Дубляж ,лицензия] pb.wtf

Сексдрайв через торрент pb.wtf

Размер: 4.37 GB | Добавлен: 7 лет 6 мес. назад | Торрент скачан:315 раз
Скачать  

27-03-2013 17:29 Сексдрайв Скачать торрент  

Сексдрайв / Sex Drive

«На что он готов, чтобы пройти этот путь до конца?»

Год выпуска: 2008
Страна: США, Summit Entertainment, Goldcrest Pictures, Alloy Entertainment
Жанр: Мелодрама, комедия, приключения
Продолжительность: 01:49:22
Перевод: Профессиональный (полное дублирование)
Субтитры: Русские | Полные
Чаптеры: Есть
Режиссер: Шон Андерс, Джон Моррис
В ролях: Джош Цуккерман, Аманда Крю, Кларк Дьюк, Джеймс Мэрсден, Сет Грин, Элис Гречин, Катрина Боуден, Чарли МакДермотт, Марк Л. Янг, Коул Петерсен, Андреа Андерс
Описание: Восемнадцатилетний старшеклассник Йен Лафферти больше не в состоянии терпеть насмешки со стороны своего самодовольного старшего брата Рекса, его 14-летний младший брат явно намного больше преуспевает на любовном фронте, а на работе в закусочной тоже достаются одни унижения. Что ещё хуже, приближается время поступления в колледж, а он всё никак не может расстаться с девственностью, рискуя выглядеть там полным неудачником. Пытаясь исправить положение, Йен обращается к помощи Интернета и вскоре знакомится с обворожительной блондинкой, которая, судя по всему, просто мечтает встретиться с ним. Единственная проблема состоит в том, что для встречи с девушкой своей мечты Йену необходимо преодолеть 500 миль между Чикаго и небольшим городком Ноксвиллом. В отчаянном шаге Иен решается позаимствовать дорогой и престижный Понтиак старшего брата и вместе со своими друзьями Лэнсом и Фелицией отправляется в путешествие, приводящее к самым непредсказуемым последствиям для трёх героев.
Мировой рейтинг IMDB 6.60 (50 192)

Качество: BDRip 720p (DVD5) (исходник Blu-Ray Remux)
Формат: MKV
Видео кодек: AVC
Аудио кодек: AC-3
Видео: 1280x720, 5076 Кбит/сек, 23,976 кадр/сек, AVC, x264
Аудио: AC-3, 640 Кбит/сек, 6 канала(ов), 48,0 КГц

Общее
Уникальный идентификатор : 245650139268275078571937943480078390919 (0xB8CE7EF3B184564785E8A68BF1435687)
Полное имя : D:торентыSex Drive.(2008).BDRip.720p.(DVD5)..mkv
Формат : Matroska
Версия формата : Version 4 / Version 2
Размер файла : 4,37 Гбайт
Продолжительность : 1 ч. 49 м.
Общий поток : 5715 Кбит/сек
Название фильма : Сексдрайв.(2008).BDRip.720p.(DVD5).[NoLimits-Team]
Дата кодирования : UTC 2013-03-23 05:53:08
Программа кодирования : mkvmerge v6.0.0 ('Coming Up For Air') built on Jan 20 2013 09:52:00
Библиотека кодирования : libebml v1.3.0 + libmatroska v1.4.0

Видео
Идентификатор : 1
Формат : AVC
Формат/Информация : Advanced Video Codec
Профиль формата : High@L4.1
Параметр CABAC формата : Да
Параметр ReFrames формата : 9 кадров
Идентификатор кодека : V_MPEG4/ISO/AVC
Продолжительность : 1 ч. 49 м.
Битрейт : 5076 Кбит/сек
Ширина : 1280 пикселей
Высота : 720 пикселей
Соотношение сторон : 16:9
Режим частоты кадров : Постоянный
Частота кадров : 23,976 кадра/сек
Цветовое пространство : YUV
Субдискретизация насыщенности : 4:2:0
Битовая глубина : 8 бит
Тип развёртки : Прогрессивная
Бит/(Пиксели*Кадры) : 0.230
Размер потока : 3,79 Гбайт (87%)
Заголовок : Сексдрайв.(2008).BDRip.720p.(DVD5).[NoLimits-Team]
Библиотека кодирования : x264 core 130 r2273 b3065e6
Настройки программы : cabac=1 / ref=9 / deblock=1:0:0 / analyse=0x3:0x133 / me=umh / subme=11 / psy=1 / psy_rd=1.00:0.00 / mixed_ref=1 / me_range=64 / chroma_me=1 / trellis=2 / 8x8dct=1 / cqm=0 / deadzone=21,11 / fast_pskip=0 / chroma_qp_offset=-2 / threads=9 / lookahead_threads=2 / sliced_threads=0 / nr=0 / decimate=1 / interlaced=0 / bluray_compat=0 / constrained_intra=0 / bframes=14 / b_pyramid=2 / b_adapt=2 / b_bias=0 / direct=3 / weightb=1 / open_gop=0 / weightp=2 / keyint=240 / keyint_min=23 / scenecut=40 / intra_refresh=0 / rc_lookahead=60 / rc=2pass / mbtree=1 / bitrate=5076 / ratetol=1.0 / qcomp=0.60 / qpmin=0 / qpmax=69 / qpstep=4 / cplxblur=20.0 / qblur=0.5 / ip_ratio=1.40 / aq=1:1.00
Язык : English
Default : Да
Forced : Нет

Аудио
Идентификатор : 2
Формат : AC-3
Формат/Информация : Audio Coding 3
Расширение режима : CM (complete main)
Параметр Endianness формата : Big
Идентификатор кодека : A_AC3
Продолжительность : 1 ч. 49 м.
Вид битрейта : Постоянный
Битрейт : 640 Кбит/сек
Каналы : 6 каналов
Расположение каналов : Front: L C R, Side: L R, LFE
Частота : 48,0 КГц
Битовая глубина : 16 бит
Метод сжатия : С потерями
Размер потока : 501 Мбайт (11%)
Заголовок : Дублированный
Язык : Russian
Default : Да
Forced : Нет

Текст
Идентификатор : 3
Формат : UTF-8
Идентификатор кодека : S_TEXT/UTF8
Идентификатор кодека/Информация : UTF-8 Plain Text
Заголовок : Русские (полные)
Язык : Russian
Default : Нет
Forced : Нет

Меню
00:00:00.000 : :Chapter 01
00:06:51.620 : :Chapter 02
00:14:35.917 : :Chapter 03
00:20:14.630 : :Chapter 04
00:28:55.484 : :Chapter 05
00:36:10.668 : :Chapter 06
00:43:32.193 : :Chapter 07
00:45:27.475 : :Chapter 08
00:54:23.385 : :Chapter 09
01:04:04.174 : :Chapter 10
01:12:14.830 : :Chapter 11
01:16:58.405 : :Chapter 12
01:24:08.460 : :Chapter 13
01:28:33.850 : :Chapter 14
01:37:32.138 : :Chapter 15
01:42:40.988 : :Chapter 16
[/url] [/url] [/url]

Сексдрайв скачать торрент


pb.wtf



Скачать Сексдрайв через торрент http://3.firepic.org/3/images/2013-03/23/807tubmvb8fu.png Скачать фильм Сексдрайв через торрент бесплантно в хорошем качестве Описание: Восемнадцатилетний старшеклассник Йен Лафферти больше не в состоянии терпеть насмешки со стороны своего самодовольного старшего ... 9.9 10 9
Info! Золотая раздача, скачанное не засчитывается.
Торрент: Зарегистрирован [2013-03-27 17:29] · скачан: 315 раз
Статус: √ проверено
Размер: 4.37 GB
Как cкачать? Как скачать Сексдрайв через торрент | qTorrent

% Раздел Тема Автор DL S | L
Фильмы 2006-2008 [ 1.5 GB ] Сексдрайв / Sex Drive [2008 BDRip лицензия] Alex_E Скачать
1 | 0
Фильмы 2006-2008 [ 748 MB ] Сексдрайв / Sex Drive [2008 HDRip] markfiter Скачать
1 | 0
Фильмы 2006-2008 [ 2.18 GB ] Сексдрайв / Sex Drive [2008 BDRip] DUB NarutoSasuke Скачать
1 | 0
Фильмы 2006-2008 [ 1.36 GB ] Сексдрайв / Sex Drive [2008 ] HASKRWS Скачать
1 | 0
Фильмы 2006-2008 [ 2.18 GB ] Сексдрайв / Sex Drive [2008 HDRip] -=BIGBOSS=- Скачать
1 | 0


Последний раз редактировалось: ALIK1989 (2013-03-27 17:56), всего редактировалось 4 раз(а)

28-11-2019 20:33  

Отключить всю рекламу на сайте

27-03-2013 17:37 Сексдрайв Скачать торрент  

ALIK1989 - укажите:
1) Видео кодек:
Аудио кодек:
2) Выложите полное MediaInfo
pb.wtf



27-03-2013 18:58 Сексдрайв Скачать торрент  

оо супер кино...много ржачных моментов!pb.wtf



10-05-2013 17:07 Сексдрайв Скачать торрент  

albert279, спасибо, сейчас буду смотреть)pb.wtf



    Дорогой пользователь! Огромная просьба, поблагодарите релизера, оцените раздачу и оставьте свои комментарий, если Вы скачали Сексдрайв через торрент бесплатно! Внесите свою лепту в развитие PiratBit!
    Комментировать посты могут только пользователи прошедшие не сложную регистрацию
    Показать сообщения:    

    Сексдрайв через торрент
    Скачать бесплатно Сексдрайв
    Сексдрайв скачать торрент
    Сексдрайв смотреть онлайн
    Cкачать фильм Сексдрайв бесплатно
    Сексдрайв скачать торрент в хорошем качестве
    Сексдрайв смотреть онлайн бесплатно в хорошем качестве


    Вы не можете начинать темы
    Вы не можете отвечать на сообщения
    Вы не можете редактировать свои сообщения
    Вы не можете удалять свои сообщения
    Вы не можете голосовать в опросах
    Вы не можете прикреплять файлы к сообщениям
    Вы можете скачивать файлы