Ссылка на приватное зеркало всего за 1$. Внимание количество ограничено!!!

iTunes

iTunes

iTunes

1

iTunes

iTunes

iTunes

iTunes

iTunes

30
pack

$ от Little Big

ВАЖНО

!!Акция!!

Alien_RageХит недели

RePack

Resident Evil 21

ИГРА 18+

pack

RePack

jed

!!Акция!!

Alien_Rage

RePack

fifa19

RePack

Assassins Creed: Odyssey

RePack

NEED FOR SPEED™ PAYBACK

4 сезон

9 сезон

Бесстыжие 9 сезон

Все сериалы

все сериалы на PB.wtf

RePack

FAR CRY 5
  

Между ангелом и бесом / Les anges gardiens (Жан-Мари Пуарэ) [1995 г., фэнтези, мелодрама, комедия, криминал, HDTV, Профессиональный + Оригинал] pb.wtf

Между ангелом и бесом через торрент pb.wtf

Размер: 6.33 GB | Добавлен: 7 лет 3 мес. назад | Торрент скачан:36 раз
Скачать  

29-03-2013 09:39 Между ангелом и бесом Скачать торрент  



Между ангелом и бесом / Les anges gardiens

Год выпуска: 1995
Страна: Франция
Жанр: фэнтези, мелодрама, комедия, криминал,
Продолжительность: 01:47:00
Перевод: Профессиональный + Оригинал
Субтитры: Нет

Режиссер: Жан-Мари Пуарэ
Продюссер: Ален Терзян, Чарльз Ванг
Сценарий: Кристиан Клавье, Жан-Мари Пуарэ

Мировой рейтинг IMDB 5.40 (1 550)


В ролях: Жерар Депардье, Кристиан Клавье, Ева Гримальди, Ив Ренье, Александр Эксимо, Лоран Жандрон, Ева Герцигова, Жан Чемпион, Анна Гейлор, Натали Сежан,

Описание: Герою Жерара Депардье, преуспевающему владельцу кабарэ со стриптизом, звонит из Гонконга друг из бурного прошлого, в котором их связывает долгом солдатской дружбы своевременно брошенная граната. Он просит его взять 20 процентов от суммы в 30 млн долларов и семилетнего мальчика-китайца с тем, чтобы доставить к матери в Париж. Договорить друг не успевает — его размазывают по стене грузовиком, гонящиеся за ним местные мафиози.Главный герой вылетает в Гонконг, находит мальчика, и теперь уже за ним начинается бешеная охота. Он ухитряется получить деньги в банке и вывезти мальчика при помощи священника, сопровождающего в приют трудновоспитуемых детишек. Деньги же подкладывает доброму католику в ежедневник с изображением Св. Екатерины. Боевые действия перемещаются на территорию Франции.

Качество: HDTV
Формат: TS
Видео кодек: H.264
Аудио кодек: AC3
Видео: 1280x720 (16:9), 50.000 fps, 7 078 Kbps (0.154 bit/pixel)
Аудио#1: AC-3, 48.0 KHz, 6 ch, 384 Kbps, CBR (Russian) Профессиональный (многоголосый закадровый) (DVD R5)
Аудио#2: AC-3, 48.0 KHz, 1 ch, 192 Kbps, CBR (Russian) Профессиональный (многоголосый закадровый) (ОРТ)
Аудио#3: AC-3, 48.0 KHz, 6 ch, 384 Kbps, CBR (French)








Общее
Идентификатор : 1 (0x1)
Полное имя : E:Между ангелом и бесом.1995.720.h264.DD5.1.Fr.2xRu.ts
Формат : MPEG-TS
Размер файла : 6,33 Гбайт
Продолжительность : 1 ч. 47 м.
Режим общего битрейта : Переменный
Общий поток : 8466 Кбит/сек
Максимальный общий битрейт : 35,5 Мбит/сек

Видео
Идентификатор : 4113 (0x1011)
Идентификатор меню : 1 (0x1)
Формат : AVC
Формат/Информация : Advanced Video Codec
Профиль формата : High@L4.0
Параметр CABAC формата : Да
Параметр ReFrames формата : 2 кадра
Параметр GOP формата : M=3, N=24
Идентификатор кодека : 27
Продолжительность : 1 ч. 46 м.
Вид битрейта : Переменный
Битрейт : 7078 Кбит/сек
Максимальный битрейт : 13,2 Мбит/сек
Ширина : 1280 пикселей
Высота : 720 пикселей
Соотношение сторон : 16:9
Частота кадров : 50,000 кадров/сек
Цветовое пространство : YUV
Субдискретизация насыщенности : 4:2:0
Битовая глубина : 8 бит
Тип развёртки : Прогрессивная
Бит/(Пиксели*Кадры) : 0.154
Размер потока : 5,29 Гбайт (84%)
Основные цвета : BT.709
Характеристики трансфера : BT.709
Коэффициенты матрицы : BT.709

Аудио #1
Идентификатор : 4352 (0x1100)
Идентификатор меню : 1 (0x1)
Формат : AC-3
Формат/Информация : Audio Coding 3
Расширение режима : CM (complete main)
Параметр Endianness формата : Big
Идентификатор кодека : 129
Продолжительность : 1 ч. 47 м.
Вид битрейта : Постоянный
Битрейт : 384 Кбит/сек
Каналы : 6 каналов
Расположение каналов : Front: L C R, Side: L R, LFE
Частота : 48,0 КГц
Битовая глубина : 16 бит
Метод сжатия : С потерями
Задержка видео : 100 мс.
Размер потока : 294 Мбайт (5%)
Язык : Russian

Аудио #2
Идентификатор : 4353 (0x1101)
Идентификатор меню : 1 (0x1)
Формат : AC-3
Формат/Информация : Audio Coding 3
Расширение режима : CM (complete main)
Параметр Endianness формата : Big
Идентификатор кодека : 129
Продолжительность : 1 ч. 46 м.
Вид битрейта : Постоянный
Битрейт : 192 Кбит/сек
Каналы : 1 канал
Расположение каналов : Front: C
Частота : 48,0 КГц
Битовая глубина : 16 бит
Метод сжатия : С потерями
Задержка видео : 100 мс.
Размер потока : 147 Мбайт (2%)
Язык : Russian

Аудио #3
Идентификатор : 4354 (0x1102)
Идентификатор меню : 1 (0x1)
Формат : AC-3
Формат/Информация : Audio Coding 3
Расширение режима : CM (complete main)
Параметр Endianness формата : Big
Идентификатор кодека : 129
Продолжительность : 1 ч. 47 м.
Вид битрейта : Постоянный
Битрейт : 384 Кбит/сек
Каналы : 6 каналов
Расположение каналов : Front: L C R, Side: L R, LFE
Частота : 48,0 КГц
Битовая глубина : 16 бит
Метод сжатия : С потерями
Задержка видео : 100 мс.
Размер потока : 294 Мбайт (5%)
Язык : French


Между ангелом и бесом скачать торрент






pb.wtf



Скачать Между ангелом и бесом через торрент http://pic.kartinco.top/images/2/ldea7tlkte.png Скачать фильм Между ангелом и бесом через торрент бесплантно в хорошем качестве Описание: Герою Жерара Депардье, преуспевающему владельцу кабарэ со стриптизом, звонит из а друг из бурного прошлого, в котором их ... 9.8 10 5
Info! Золотая раздача, скачанное не засчитывается.
Торрент: Зарегистрирован [2013-03-29 09:39] · скачан: 36 раз
Статус: √ проверено
Размер: 6.33 GB
Как cкачать? Как скачать Между ангелом и бесом через торрент | qTorrent

% Раздел Тема Автор DL S | L
Фильмы до 2000 г. [ 6.33 GB ] Между ангелом и бесом / Les anges gardiens [1995 HDTV 720рMVO + Original Fr ] Assasinca Скачать
1 | 0
Фильмы до 2000 г. [ 1.37 GB ] Между ангелом и бесом / Les anges gardiens [1995 DVDRip] Lil Badun Скачать
1 | 0

28-11-2019 20:33  

Отключить всю рекламу на сайте

29-03-2013 14:13 Между ангелом и бесом Скачать торрент  

Классный фильм,спасибо за раздачу!
Но можно его зжать гигов до двух?)pb.wtf



    Дорогой пользователь! Огромная просьба, поблагодарите релизера, оцените раздачу и оставьте свои комментарий, если Вы скачали Между ангелом и бесом через торрент бесплатно! Внесите свою лепту в развитие PiratBit!
    Комментировать посты могут только пользователи прошедшие не сложную регистрацию
    Показать сообщения:    

    Между ангелом и бесом через торрент
    Скачать бесплатно Между ангелом и бесом
    Между ангелом и бесом скачать торрент
    Между ангелом и бесом смотреть онлайн
    Cкачать фильм Между ангелом и бесом бесплатно
    Между ангелом и бесом скачать торрент в хорошем качестве
    Между ангелом и бесом смотреть онлайн бесплатно в хорошем качестве


    Вы не можете начинать темы
    Вы не можете отвечать на сообщения
    Вы не можете редактировать свои сообщения
    Вы не можете удалять свои сообщения
    Вы не можете голосовать в опросах
    Вы не можете прикреплять файлы к сообщениям
    Вы можете скачивать файлы