1 сезон

3 сезон

iTunes

1

iTunes

MVO

iTunes

13

1 сезон

RePack

30

Deluxe

pack

Лицензия

ВАЖНО

ИГРА 18+

pack

RePack

MK11

RePack

jed

RePack

fifa19

RePack

RDR2

RePack

NEED FOR SPEED™ PAYBACK

4 сезон

9 сезон

Бесстыжие 9 сезон

Все сериалы

все сериалы на PB.wtf

RePack

FAR CRY 5

Anonymous, добрый вечер, мы катастрофически не успеваем собрать деньги на оплату серверов, помогите нам пожалуйста 5,10,15р., для нас важна любая помощь . В качестве благодарности мы отключим Вам всю рекламу на сайте (укажите свой ник в строку Ваше имя)!

×
  
Magnet ссылка

Цель Номер Один / Zero Dark Thirty (Кэтрин Бигелоу / Kathryn Bigelow) [2012, триллер, драма, история, DVD9] R5 pb.wtf

Цель Номер Один через торрент pb.wtf

Размер: 7.26 GB | Добавлен: 8 лет 3 мес. назад | Торрент скачан:108 раз
Скачать  

29-03-2013 14:07 Цель Номер Один Скачать торрент  


Цель Номер Один / Zero Dark Thirty
«Десять лет женщина провела в поисках самого опасного в мире человека»
Страна: США
Студия: Annapurna Pictures, Columbia Pictures, First Light Production
Жанр: триллер, драма, история
Год выпуска: 2012
Мировая премьера: 19 декабря 2012
Российская премьера: 21 февраля 2013
Дата выхода DVD: 2 апреля 2013
Дата выхода Blu-Ray: 2 апреля 2013
Продолжительность: 02:30:34
Перевод: Профессиональный (дублированный) [Лицензия]
Cубтитры: нет
Оригинальная аудиодорожка: нет
Режиссер: Кэтрин Бигелоу / Kathryn Bigelow
В ролях: Джессика Честейн, Джоэл Эдгертон, Эдгар Рамирез, Марк Стронг, Кайл Чандлер, Дженнифер Или, Джеймс Гандольфини, Стивен Диллэйн, Хэролд Перрино, Джейсон Кларк
Описание: История одной из операций спецслужб США по поимке «террориста N1» Усамы Бен Ладена.
Бонусы: нет

Релиз группы:
Качество: DVD9 R5
Формат: DVD-Video
Видео кодек: MPEG2
Аудио кодек: AC3
Видео: PAL 16:9 (720x576(0.572)) MPEG Video, 25,000 кадр/сек, 5935 Кбит/сек
Аудио: Russian (Dolby AC3, 6 ch) 448 Кбит/сек, 48,0 КГц



Title: Cel.nomer.odin.2012.DVD9
Size: 7.26 Gb ( 7 614 632,00 KBytes ) - DVD-9
Enabled regions: 1, 2, 3, 4, 5, 6, 7, 8

VTS_01 :
Play Length: 02:30:34
Video: PAL 16:9 (720x576) VBR, Auto Letterboxed
Audio:
Russian (Dolby AC3, 6 ch)

* Menus Information *

VIDEO_TS Menu
Video:
PAL 16:9 (720x576) VBR
Auto Letterboxed
Audio:
Not specified (Dolby AC3, 2 ch)
Russian Language Unit :
Title Menu

VTS_01 Menu
Video:
PAL 16:9 (720x576) VBR
Auto Letterboxed
Audio:
Not specified (Dolby AC3, 2 ch)
Russian Language Unit :
Root Menu
Общее
Полное имя : L:Новинки 2013Cel.nomer.odin.2012.DVD9VIDEO_TSVTS_01_2.VOB
Формат : MPEG-PS
Размер файла : 1024 Мбайт
Продолжительность : 21 м.
Режим общего битрейта : Переменный
Общий поток : 6512 Кбит/сек

Видео
Идентификатор : 224 (0xE0)
Формат : MPEG Video
Версия формата : Version 2
Профиль формата : Main@Main
Параметр BVOP формата : Да
Параметр матрицы формата : Выборочная
Параметр GOP формата : M=3, N=15
Продолжительность : 21 м.
Вид битрейта : Переменный
Битрейт : 5935 Кбит/сек
Максимальный битрейт : 8000 Кбит/сек
Ширина : 720 пикселей
Высота : 576 пикселей
Соотношение сторон : 16:9
Частота кадров : 25,000 кадров/сек
Стандарт вещания : PAL
Цветовое пространство : YUV
Субдискретизация насыщенности : 4:2:0
Битовая глубина : 8 бит
Тип развёртки : Чересстрочная
Порядок развёртки : Верхнее поле первое
Метод сжатия : С потерями
Бит/(Пиксели*Кадры) : 0.572
Размер потока : 933 Мбайт (91%)

Аудио
Идентификатор : 189 (0xBD)-128 (0x80)
Формат : AC-3
Формат/Информация : Audio Coding 3
Расширение режима : CM (complete main)
Параметр Endianness формата : Big
Режим смешивания : DVD-Video
Продолжительность : 21 м.
Вид битрейта : Постоянный
Битрейт : 448 Кбит/сек
Каналы : 6 каналов
Расположение каналов : Front: L C R, Side: L R, LFE
Частота : 48,0 КГц
Битовая глубина : 16 бит
Метод сжатия : С потерями
Задержка видео : -488 мс.
Размер потока : 70,4 Мбайт (7%)










pb.wtf



Скачать Цель Номер Один через торрент http://s004.radikal.ru/i206/1303/2c/a4b94a95aa9b.jpg Скачать фильм Цель Номер Один через торрент бесплантно в хорошем качестве Описание: История одной из операций спецслужб США по поимке «террориста N1» Усамы Бен Ладена.Бонусы: нет Релиз ... 10 10 7
Info! Золотая раздача, скачанное не засчитывается.
Торрент: Зарегистрирован [2013-03-29 14:07] · скачан: 108 раз
Статус: √ проверено
Размер: 7.26 GB
Как cкачать? Как скачать Цель Номер Один через торрент | UTorrent

28-11-2019 20:33  

Отключить всю рекламу на сайте

    Дорогой пользователь! Огромная просьба, поблагодарите релизера, оцените раздачу и оставьте свои комментарий, если Вы скачали Цель Номер Один через торрент бесплатно! Внесите свою лепту в развитие PiratBit!
    Комментировать посты могут только пользователи прошедшие не сложную регистрацию
    Показать сообщения:    

    Цель Номер Один через торрент
    Скачать бесплатно Цель Номер Один
    Цель Номер Один скачать торрент
    Цель Номер Один смотреть онлайн
    Cкачать фильм Цель Номер Один бесплатно
    Цель Номер Один скачать торрент в хорошем качестве
    Цель Номер Один смотреть онлайн бесплатно в хорошем качестве


    Вы не можете начинать темы
    Вы не можете отвечать на сообщения
    Вы не можете редактировать свои сообщения
    Вы не можете удалять свои сообщения
    Вы не можете голосовать в опросах
    Вы не можете прикреплять файлы к сообщениям
    Вы можете скачивать файлы