Доктор Стрэндж

Лицензия

Добыча

Дубляж

Уэнсдэй

1 сезон

Тор

Дубляж

В эфире

Дубляж

Там, где раки поют

MVO

Властелин колец

1 сезон

Deluxe

pack

Рекомендуем

30

Пиратка

ВАЖНО

ВАЖНО

Ghostwire

Пиратка

jed

RePack

nioh2

RePack

RDR2

RePack

NEED FOR SPEED™ PAYBACK

RePack

скачать торрент

Кинопоиск HD

Острые козырьки 6 сезон

6 сезон

FAR CRY 6

RePack

скачать торрент

Лицензия

скачать торрент

MVO

1

1 сезон

скачать торрент

1 сезон

скачать торрент

Лицензия

  

Тот, кто прошел сквозь огонь / Той, хто пройшов крізь вогонь (Михаил Ильенко / Mykhailo Illienko) [2011, драма, приключения, биография, DVD9] R5

Смотреть онлайн | Скачать   

30-03-2013 09:15 Тот, кто прошел сквозь огонь Скачать торрент  


Тот, кто прошел сквозь огонь / Той, хто пройшов крізь вогонь
Страна: Украина
Студия: Insightmedia Producing Center, Ministry of culture and tourism of Ukraine, Ukrainian State Film Agency
Жанр: драма, приключения, биография
Год выпуска: 2011
Мировая премьера: 21 сентября 2011
Дата выхода DVD: Январь 2013
Продолжительность: 01:45:19
Перевод: Оригинал [Лицензия]
Cубтитры: русские, английские, украинские, польские
Оригинальная аудиодорожка: русский
Режиссер: Михаил Ильенко / Mykhailo Illienko
В ролях: Дмитро Линартович, Виктор Андриенко, Ольга Гришина, Александр Игнатуша, Ивана Ильенко, Алексей Колесник, Виталий Линецкий
Описание: Когда советский летчик Иван Додока бежал из немецкого плена, он был обвинен в государственной измене и сослан в сталинские лагеря. Иван убегает. На него начинается охота, что лишает героя надежды на встречу с любимой, и, в конечном счете, самой Родины. .. Основанная на реальных событиях, эта история ведет зрителя через ряд приключений, превращающие летчика и Героя Советского Союза в узника ГУЛАГа, а впоследствии переносят его к индейскому племени в Канаде. Там Иван получает свое новое имя — Тотктопрошелсквозьогонь.
Бонусы: нет
Доп. информация: Присутствуют фразы на украинском языке

Качество: DVD9 R5
Формат: DVD-Video
Видео кодек: MPEG2
Аудио кодек: AC3 + DTS
Видео: PAL 16:9 (720x576(0.772)) MPEG Video, 25,000 кадр/сек, 8000 Кбит/сек
Аудио #1: Russian (Dolby AC3, 2 ch) 192 Кбит/сек, 48,0 КГц
Аудио #2: Russian (DTS, 5 ch) 1536 Кбит/сек, 48,0 КГц



Title: Tot.kto.proshel.skvoz.ogon.2011.DVD9
Size: 7.52 Gb ( 7 890 514,00 KBytes ) - DVD-9
Enabled regions: 1, 2, 3, 4, 5, 6, 7, 8

VTS_01 :
Play Length: 01:45:19
Video: PAL 16:9 (720x576) VBR, Auto Letterboxed
Audio:
English (Dolby AC3, 2 ch)
Not specified (DTS, 5 ch)
Subtitles:
Ukrainian
English
Russian
Polish

VTS_02 :
Play Length: 00:00:00
Video: PAL 4:3 (720x576) VBR

* Menus Information *

VIDEO_TS Menu
Video:
PAL 4:3 (720x576) VBR
English Language Unit :
Title Menu

VTS_01 Menu
Video:
PAL 16:9 (720x576) VBR
Auto Letterboxed
English Language Unit :
Root Menu

VTS_02 Menu
Video:
PAL 16:9 (720x576) VBR
Auto Letterboxed
Audio:
Not specified (Dolby AC3, 2 ch)
English Language Unit :
Root Menu
Общее
Полное имя : L:Новинки 2013Tot.kto.proshel.skvoz.ogon.2011.DVD9VIDEO_TSVTS_01_2.VOB
Формат : MPEG-PS
Размер файла : 1024 Мбайт
Продолжительность : 14 м.
Общий поток : 9880 Кбит/сек

Видео
Идентификатор : 224 (0xE0)
Формат : MPEG Video
Версия формата : Version 2
Профиль формата : [email protected]
Параметр BVOP формата : Да
Параметр матрицы формата : По умолчанию
Параметр GOP формата : M=3, N=12
Продолжительность : 14 м.
Битрейт : 8000 Кбит/сек
Ширина : 720 пикселей
Высота : 576 пикселей
Соотношение сторон : 16:9
Частота кадров : 25,000 кадров/сек
Стандарт вещания : PAL
Цветовое пространство : YUV
Субдискретизация насыщенности : 4:2:0
Битовая глубина : 8 бит
Тип развёртки : Чересстрочная
Порядок развёртки : Нижнее поле первое
Метод сжатия : С потерями
Бит/(Пиксели*Кадры) : 0.772
Размер потока : 827 Мбайт (81%)

Аудио #1
Идентификатор : 189 (0xBD)-128 (0x80)
Формат : AC-3
Формат/Информация : Audio Coding 3
Расширение режима : CM (complete main)
Параметр Endianness формата : Big
Режим смешивания : DVD-Video
Продолжительность : 14 м.
Вид битрейта : Постоянный
Битрейт : 192 Кбит/сек
Каналы : 2 канала
Расположение каналов : Front: L R
Частота : 48,0 КГц
Битовая глубина : 16 бит
Метод сжатия : С потерями
Задержка видео : -384 мс.
Размер потока : 19,9 Мбайт (2%)

Аудио #2
Идентификатор : 189 (0xBD)-137 (0x89)
Формат : DTS
Формат/Информация : Digital Theater Systems
Режим : 16
Параметр Endianness формата : Big
Режим смешивания : DVD-Video
Продолжительность : 14 м.
Вид битрейта : Постоянный
Битрейт : 1510 Кбит/сек
Каналы : 6 каналов
Расположение каналов : Front: L C R, Side: L R, LFE
Частота : 48,0 КГц
Битовая глубина : 16 бит
Метод сжатия : С потерями
Задержка видео : -427 мс.
Размер потока : 156 Мбайт (15%)

Текст #1
Идентификатор : 189 (0xBD)-33 (0x21)
Формат : RLE
Формат/Информация : Run-length encoding
Режим смешивания : DVD-Video
Задержка видео : 140 мс.

Текст #2
Идентификатор : 189 (0xBD)-34 (0x22)
Формат : RLE
Формат/Информация : Run-length encoding
Режим смешивания : DVD-Video
Задержка видео : 140 мс.

Текст #3
Идентификатор : 189 (0xBD)-35 (0x23)
Формат : RLE
Формат/Информация : Run-length encoding
Режим смешивания : DVD-Video
Продолжительность : 14 м.
Задержка видео : -20 мс.

Текст #4
Идентификатор : 189 (0xBD)-36 (0x24)
Формат : RLE
Формат/Информация : Run-length encoding
Режим смешивания : DVD-Video
Продолжительность : 14 м.
Задержка видео : -20 мс.

Текст #5
Идентификатор : 189 (0xBD)-39 (0x27)
Формат : RLE
Формат/Информация : Run-length encoding
Режим смешивания : DVD-Video
Продолжительность : 14 м.
Задержка видео : -20 мс.

Текст #6
Идентификатор : 189 (0xBD)-40 (0x28)
Формат : RLE
Формат/Информация : Run-length encoding
Режим смешивания : DVD-Video
Продолжительность : 14 м.
Задержка видео : -20 мс.

Текст #7
Идентификатор : 189 (0xBD)-37 (0x25)
Формат : RLE
Формат/Информация : Run-length encoding
Режим смешивания : DVD-Video

Текст #8
Идентификатор : 189 (0xBD)-38 (0x26)
Формат : RLE
Формат/Информация : Run-length encoding
Режим смешивания : DVD-Video













Скачать
Чтобы иметь возможность скачивать с Торрент Трекера, нужно Зарегистрироваться

Как скачивать  ·  Рейтинг и ограничения

28-11-2019 20:33  


Отключить вcю реклaмy на сайте, в т.ч. и в плеере онлайн просмотра!

19-08-2014 19:18 Тот, кто прошел сквозь огонь Скачать торрент  

Спасибо



    Дорогой пользователь! Огромная просьба, поблагодарите релизера, оцените раздачу и оставьте свои комментарий, если Вы скачали Тот, кто прошел сквозь огонь через торрент бесплатно!!
    Комментировать посты могут только пользователи прошедшие не сложную регистрацию
    Показать сообщения:    


    Тот, кто прошел сквозь огонь через торрент
    Скачать бесплатно Тот, кто прошел сквозь огонь
    Тот, кто прошел сквозь огонь скачать торрент
    Тот, кто прошел сквозь огонь смотреть онлайн
    Cкачать фильм Тот, кто прошел сквозь огонь бесплатно
    Тот, кто прошел сквозь огонь скачать торрент в хорошем качестве
    Тот, кто прошел сквозь огонь смотреть онлайн бесплатно в хорошем качестве
    Вы не можете начинать темы
    Вы не можете отвечать на сообщения
    Вы не можете редактировать свои сообщения
    Вы не можете удалять свои сообщения
    Вы не можете голосовать в опросах
    Вы не можете прикреплять файлы к сообщениям
    Вы не можете скачивать файлы
    Тот, кто прошел сквозь огонь / Той, хто пройшов крізь вогонь [2011, драма, приключения, биография, DVD9] R5 смотреть онлайн, скачать торрент picoco.icu