1 сезон

3 сезон

iTunes

1

iTunes

MVO

iTunes

13

1 сезон

RePack

30

Deluxe

pack

Лицензия

ВАЖНО

ИГРА 18+

pack

RePack

MK11

RePack

jed

RePack

fifa19

RePack

RDR2

RePack

NEED FOR SPEED™ PAYBACK

4 сезон

9 сезон

Бесстыжие 9 сезон

Все сериалы

все сериалы на PB.wtf

RePack

FAR CRY 5

Anonymous, доброй ночи, мы катастрофически не успеваем собрать деньги на оплату серверов, помогите нам пожалуйста 5,10,15р., для нас важна любая помощь . В качестве благодарности мы отключим Вам всю рекламу на сайте (укажите свой ник в строку Ваше имя)!

×
  
Magnet ссылка

Мрачные небеса / Dark Skies (Скотт Чарльз Стюарт / Scott Charles Stewart) [2013, ужасы, фантастика, триллер, DVD5] R5 pb.wtf

Мрачные небеса через торрент pb.wtf

Качают: 1 [ 0 KB/s ]
Размер: 3.63 GB | Добавлен: 8 лет 3 мес. назад | Торрент скачан:301 раз
Скачать  

29-03-2013 20:14 Мрачные небеса Скачать торрент  


Мрачные небеса / Dark Skies
«Если тебя выбрали, уже не скрыться»
Страна: США
Студия: Alliance Films, Blumhouse Productions
Жанр: ужасы, фантастика, триллер
Год выпуска: 2013
Мировая премьера: 21 февраля 2013
Российская премьера: 21 февраля 2013
Дата выхода DVD: 26 марта 2013
Продолжительность: 01:33:01
Перевод: Профессиональный (дублированный) [Лицензия]
Cубтитры: нет
Оригинальная аудиодорожка: нет
Режиссер: Скотт Чарльз Стюарт / Scott Charles Stewart
В ролях: Кери Рассел, Джош Хэмилтон, Дакота Гойо, Кадан Рокетт, Дж.К. Симмонс, Л.Дж. Бенет, Рич Хатчмэн, Минди Крист, Энни Турман, Джейк Уошберн
Описание: После того как серия тревожных событий врывается в мирную жизнь семьи Барреттов, они пытаются узнать, что за страшные неведомые силы стоят за всем этим.
Бонусы: нет

Релиз группы:
Качество: DVD5 R5
Формат: DVD-Video
Видео кодек: MPEG2
Аудио кодек: AC3
Видео: PAL 16:9 (720x576(0.489)) MPEG Video, 25,000 кадр/сек, 5074 Кбит/сек
Аудио: Russian (Dolby AC3, 6 ch) 448 Кбит/сек, 48,0 КГц



Title: Mrachnye.nebesa.2012.DVD5
Size: 3.63 Gb ( 3 803 382,00 KBytes ) - DVD-5
Enabled regions: 1, 2, 3, 4, 5, 6, 7, 8

VTS_01 :
Play Length: 01:33:01
Video: PAL 16:9 (720x576) VBR, Auto Letterboxed
Audio:
Russian (Dolby AC3, 6 ch)

VTS_02 :
Play Length: 00:00:08
Video: PAL 4:3 (720x576) VBR

VTS_03 :
Play Length: 00:00:21
Video: PAL 16:9 (720x576) VBR, Auto Letterboxed
Audio:
English (Dolby AC3, 2 ch)

* Menus Information *

VIDEO_TS Menu
Video:
NTSC 4:3 (720x480) VBR
Auto Pan&Scan, Auto Letterboxed
Russian Language Unit :
Title Menu

VTS_01 Menu
Video:
PAL 16:9 (720x576) VBR
Auto Letterboxed
Audio:
Not specified (Dolby AC3, 2 ch)
Russian Language Unit :
Root Menu
Chapter (PTT) Menu

VTS_02 Menu
Video:
NTSC 4:3 (720x480) VBR
Auto Pan&Scan, Auto Letterboxed
Language Unit :
Chapter (PTT) Menu

VTS_03 Menu
Video:
NTSC 4:3 (720x480) VBR
Auto Pan&Scan, Auto Letterboxed
Language Unit :
Chapter (PTT) Menu
Общее
Полное имя : L:Новинки 2013Mrachnye.nebesa.2012.DVD5VIDEO_TSVTS_01_1.VOB
Формат : MPEG-PS
Размер файла : 1024 Мбайт
Продолжительность : 25 м.
Режим общего битрейта : Переменный
Общий поток : 5634 Кбит/сек

Видео
Идентификатор : 224 (0xE0)
Формат : MPEG Video
Версия формата : Version 2
Профиль формата : Main@Main
Параметр BVOP формата : Да
Параметр матрицы формата : Выборочная
Параметр GOP формата : Variable
Продолжительность : 25 м.
Вид битрейта : Переменный
Битрейт : 5074 Кбит/сек
Максимальный битрейт : 8000 Кбит/сек
Ширина : 720 пикселей
Высота : 576 пикселей
Соотношение сторон : 16:9
Частота кадров : 25,000 кадров/сек
Стандарт вещания : PAL
Цветовое пространство : YUV
Субдискретизация насыщенности : 4:2:0
Битовая глубина : 8 бит
Тип развёртки : Чересстрочная
Порядок развёртки : Верхнее поле первое
Метод сжатия : С потерями
Бит/(Пиксели*Кадры) : 0.489
Размер потока : 922 Мбайт (90%)

Аудио
Идентификатор : 189 (0xBD)-128 (0x80)
Формат : AC-3
Формат/Информация : Audio Coding 3
Расширение режима : CM (complete main)
Параметр Endianness формата : Big
Режим смешивания : DVD-Video
Продолжительность : 25 м.
Вид битрейта : Постоянный
Битрейт : 448 Кбит/сек
Каналы : 6 каналов
Расположение каналов : Front: L C R, Side: L R, LFE
Частота : 48,0 КГц
Битовая глубина : 16 бит
Метод сжатия : С потерями
Размер потока : 81,4 Мбайт (8%)










pb.wtf



Скачать Мрачные небеса через торрент http://s019.radikal.ru/i614/1303/10/ab2edc15f5d4.jpg Скачать фильм Мрачные небеса через торрент бесплантно в хорошем качестве Описание: После того как серия тревожных событий врывается в мирную жизнь семьи Барреттов, они пытаются узнать, что за страшные неведомые ... 9.8 10 12
Info! Золотая раздача, скачанное не засчитывается.
Торрент: Зарегистрирован [2013-03-31 13:16] · скачан: 301 раз
Статус: √ проверено
Размер: 3.63 GB
Как cкачать? Как скачать Мрачные небеса через торрент | UTorrent

28-11-2019 20:33  

Отключить всю рекламу на сайте

    Дорогой пользователь! Огромная просьба, поблагодарите релизера, оцените раздачу и оставьте свои комментарий, если Вы скачали Мрачные небеса через торрент бесплатно! Внесите свою лепту в развитие PiratBit!
    Комментировать посты могут только пользователи прошедшие не сложную регистрацию
    Показать сообщения:    

    Мрачные небеса через торрент
    Скачать бесплатно Мрачные небеса
    Мрачные небеса скачать торрент
    Мрачные небеса смотреть онлайн
    Cкачать фильм Мрачные небеса бесплатно
    Мрачные небеса скачать торрент в хорошем качестве
    Мрачные небеса смотреть онлайн бесплатно в хорошем качестве


    Вы не можете начинать темы
    Вы не можете отвечать на сообщения
    Вы не можете редактировать свои сообщения
    Вы не можете удалять свои сообщения
    Вы не можете голосовать в опросах
    Вы не можете прикреплять файлы к сообщениям
    Вы можете скачивать файлы