Мега распродажа FORZA HORIZON 4 ULTIMATE+ВСЕ DLC+ОНЛАЙН всего за 499р. 349 руб. (супер цена). Внимание количество ограничено!!!

Лицензия

30

iTunes

мы

iTunes

1

1 сезон

Чернобыль

1 сезон

Ральф против интернета

MVO

Покемон. Детектив Пикачу

8 сезон

Игра престолов

iTunes

1+1

ИГРА 18+

pack

ВАЖНО

!!Акция!!

Alien_RageХит недели

RePack

Resident Evil 21
pack

RePack

Metro:Exodus

!!Акция!!

Alien_Rage

RePack

fifa19

RePack

Assassins Creed: Odyssey

RePack

NEED FOR SPEED™ PAYBACK

3 сезон

9 сезон

Бесстыжие 9 сезон

Все сериалы

все сериалы на PB.wtf

RePack

FAR CRY 5
Ребята, катастрофически не хватает 2730р. для оплаты серверов за МАЙ (всвязи с блокировками трафик упал в 3 раза), 1-2р., выручайте.
  

Убежище / Le refuge (Франсуа Озон) [2009 г., драма, 720p WEB-DLRip, MVO, лицензия] pb.wtf

Убежище через торрент pb.wtf

Размер: 1.11 GB | Добавлен: 6 лет 2 мес. назад | Торрент скачан:39 раз
Скачать  

31-03-2013 15:15 Убежище Скачать торрент  

Убежище / Le refuge
Год выпуска: 2009
Страна: Франция
Жанр: драма,
Продолжительность: 88 мин. / 01:28
Перевод: Профессиональный многоголосый, Лицензия
Тип релиза: Лицензия
Субтитры: Отсутствуют

Режиссер: Франсуа Озон
Продюссер: Крис Болзли, Клоди Оссар, Хелен Олив
Сценарий: Матье Иппо, Франсуа Озон

Бюджет: -
Премьера в мире: 16 сентября 2009



В ролях: Изабель Карре, Луи-Ронан Шуази, Пьер Луи-Каликст, Мельвиль Пупо, Клер Верне, Жан-Пьер Андреани, Мари Ривьер, Жером Киршер, Николас Моро, Эмиль Берлинг.,

Описание: Парижская «золотая молодежь» развлекается… В шикарных апартаментах Мюс и Луи смешивают любовь и наркотики в сумасшедший коктейль. Наутро беспечная жизнь заканчивается: Луи умирает от передозировки.

Мюс переживает худшие дни в своей жизни. Но вскоре выясняется, что она еще и беременна. В стремлении сбежать от обрушившихся на нее бед Мюс уезжает в заброшенный дом, где, как она надеется, все оставят ее в покое. Но однажды в ее тихое убежище вторгается нежданный гость…

Качество: 720p WEB-DLRip
Формат: MP4
Видео кодек: AVC
Аудио кодек: AC3
Видео: 1750 Кбит/сек 1280х700 пикселей 25,000 кадров/сек
Аудио#1: 128 Кбит/сек 2 канала 44,1 КГц




Общее
Полное имя : D:videoубежищеУбежище.mp4
Формат : MPEG-4
Профиль формата : Base Media
Идентификатор кодека : isom
Размер файла : 1,11 Гбайт
Продолжительность : 1 ч. 24 м.
Режим общего битрейта : Переменный
Общий поток : 1880 Кбит/сек
Программа кодирования : Lavf52.40.0

Видео
Идентификатор : 1
Формат : AVC
Формат/Информация : Advanced Video Codec
Профиль формата : High@L3.1
Параметр CABAC формата : Да
Параметр ReFrames формата : 3 кадра
Идентификатор кодека : avc1
Идентификатор кодека/Информация : Advanced Video Coding
Продолжительность : 1 ч. 24 м.
Битрейт : 1750 Кбит/сек
Ширина : 1280 пикселей
Высота : 700 пикселей
Соотношение сторон : 16:9
Режим частоты кадров : Постоянный
Частота кадров : 25,000 кадров/сек
Цветовое пространство : YUV
Субдискретизация насыщенности : 4:2:0
Битовая глубина : 8 бит
Тип развёртки : Прогрессивная
Бит/(Пиксели*Кадры) : 0.078
Размер потока : 1,03 Гбайт (93%)
Библиотека кодирования : x264 core 79

Аудио
Идентификатор : 2
Формат : AAC
Формат/Информация : Advanced Audio Codec
Профиль формата : LC
Идентификатор кодека : 40
Продолжительность : 1 ч. 24 м.
Вид битрейта : Переменный
Битрейт : 128 Кбит/сек
Каналы : 2 канала
Расположение каналов : Front: L R
Частота : 44,1 КГц
Метод сжатия : С потерями
Размер потока : 77,5 Мбайт (7%)
Язык : English

pb.wtf



Скачать Убежище через торрент http://pic.kartinco.top/images/2/j98pus4vqt.jpg Скачать фильм Убежище через торрент бесплантно в хорошем качестве Описание: Парижская «золотая молодежь» развлекается… В шикарных апартаментах Мюс и Луи смешивают любовь и наркотики в сумасшедший коктейль. ... 6.4 10 5
Info! Золотая раздача, скачанное не засчитывается.
Торрент: Зарегистрирован [2013-03-31 15:42] · скачан: 39 раз
Статус: √ проверено
Размер: 1.11 GB
Как cкачать? Как скачать Убежище через торрент | qTorrent

% Раздел Тема Автор DL S | L
Фильмы [HD 720p, 1080p] (Хороший звук DUB, MVO) [ 8.24 GB ] Убежище / Le refuge [2009 BDRip 1080p by msltel] MVO msltel Скачать
1 | 0
Фильмы [HD 720p, 1080p] (Хороший звук DUB, MVO) [ 2.56 GB ] Убежище / Le refuge [2009 BDRip 720p by msltel] MVO msltel Скачать
1 | 0


>> Регистрируемся здесь <<






Отзывы и комментарии о схеме читаем и пишем здесь: ---> Отзывы и комментарии о схеме

Новые благодарочки в телеграм довольных пользователей:
скриншот   скриншот   скриншот   скриншот   скриншот
    Дорогой пользователь! Огромная просьба, поблагодарите релизера, оцените раздачу и оставьте свои комментарий, если Вы скачали Убежище через торрент бесплатно! Внесите свою лепту в развитие PiratBit!
    Комментировать посты могут только пользователи прошедшие не сложную регистрацию
    Показать сообщения:    

    Убежище через торрент
    Скачать бесплатно Убежище
    Убежище скачать торрент
    Убежище смотреть онлайн
    Cкачать фильм Убежище бесплатно
    Убежище скачать торрент в хорошем качестве
    Убежище смотреть онлайн бесплатно в хорошем качестве


    Вы не можете начинать темы
    Вы не можете отвечать на сообщения
    Вы не можете редактировать свои сообщения
    Вы не можете удалять свои сообщения
    Вы не можете голосовать в опросах
    Вы не можете прикреплять файлы к сообщениям
    Вы можете скачивать файлы