Ссылка на приватное зеркало нашего сайта всего за 1$. Внимание количество ограничено!!!

2 сезон

iTunes

1 сезон

1

iTunes

iTunes

iTunes

1 сезон

RePack

30

ИГРА 18+

pack

ВАЖНО

!!Акция!!

Alien_RageХит недели

RePack

MK11
pack

Забери бонус

RePack

jed

!!Акция!!

Alien_Rage

RePack

fifa19

RePack

Assassins Creed: Odyssey

RePack

NEED FOR SPEED™ PAYBACK

4 сезон

9 сезон

Бесстыжие 9 сезон

Все сериалы

все сериалы на PB.wtf

RePack

FAR CRY 5
  

Астерикс против Цезаря / Astérix et la surprise de César (Поль Брицци / Paul Brizzi, Гаэтан Брицци / Gaetan Brizzi) [1985 г., мультфильм, приключения, комедия, BDRip] MVO pb.wtf

Астерикс против Цезаря через торрент pb.wtf

Размер: 744 MB | Добавлен: 7 лет 6 мес. назад | Торрент скачан:113 раз
Скачать  

02-04-2013 04:34 Астерикс против Цезаря Скачать торрент  

Астерикс против Цезаря / Astérix et la surprise de César
Год выпуска: 1985 г.
Страна: Франция
Жанр: мультфильм, приключения, комедия
Продолжительность: 01:16:30
Перевод: Профессиональный (многоголосый закадровый) - R5 Videogram
Cубтитры: нет
Режиссер: Поль Брицци / Paul Brizzi, Гаэтан Брицци / Gaetan Brizzi
Описание: Однажды Обеликс влюбился в прекрасную Панацею. Приглянулась она ему. Казалось бы, дело к свадьбе. Но гордая Панацея не разделила порыв великана друида, положив глаз на красавца Трагикомикса. Обеликс погоревал-погоревал, да и утешился.

До тех пор, пока злобные римляне не похитили предательским образом двоих влюбленных и не увезли их на край света — в Африку. Естественно, друзья не могли сидеть сложа руки. Недолго думая, Астерикс и Обеликс отправляются в новый поход, как всегда, полный смертельных опасностей и веселых приключений. А римская арена по случаю дня рождения Цезаря уже заполнена народом и все ждут жертвоприношения.
Качество видео: BDRip
Формат видео: AVI
Видео кодек: XviD
Аудио кодек: MP3
Видео: 640x384 (1.67:1), 23.976 fps, XviD build 50 ~1222 kbps avg, 0.21 bit/pixel
Аудио: 48 kHz, MPEG Layer 3, 2 ch, ~128.00 kbps avg

D:Asterix.et.la.surprise.de.Cesar.1985.MVO.BDRip by dexter lex.avi
General
Complete name : D:Asterix.et.la.surprise.de.Cesar.1985.MVO.BDRip by dexter lex.avi
Format : AVI
Format/Info : Audio Video Interleave
File size : 744 MiB
Duration : 1h 16mn
Overall bit rate : 1 359 Kbps
Writing application : VirtualDubMod 1.5.10.3 | www.virtualdub-fr.org || (build 2550/release)
Writing library : VirtualDubMod build 2550/release
Video #0
ID : 0
Format : MPEG-4 Visual
Format profile : Advanced Simple@L5
Format settings, BVOP : 1
Format settings, QPel : No
Format settings, GMC : No warppoints
Format settings, Matrix : Custom
Codec ID : XVID
Codec ID/Hint : XviD
Duration : 1h 16mn
Bit rate : 1 222 Kbps
Width : 640 pixels
Height : 384 pixels
Display aspect ratio : 1.67:1
Frame rate : 23.976 fps
Color space : YUV
Chroma subsampling : 4:2:0
Bit depth : 8 bits
Scan type : Progressive
Compression mode : Lossy
Bits/(Pixel*Frame) : 0.207
Stream size : 669 MiB (90%)
Writing library : XviD 1.2.1 (UTC 2008-12-04)
Audio #1
ID : 1
Format : MPEG Audio
Format version : Version 1
Format profile : Layer 3
Codec ID : 55
Codec ID/Hint : MP3
Duration : 1h 16mn
Bit rate mode : Constant
Bit rate : 128 Kbps
Channel(s) : 2 channels
Sampling rate : 48.0 KHz
Compression mode : Lossy
Stream size : 70.0 MiB (9%)
Alignment : Aligned on interleaves
Interleave, duration : 42 ms (1.00 video frame)
Interleave, preload duration : 504 ms
Writing library : LAME3.99r
Encoding settings : -m s -V 4 -q 2 -lowpass 17 -b 128
pb.wtf



Скачать Астерикс против Цезаря через торрент http://s15.radikal.ru/i189/1105/c3/3358f19e792a.png Скачать фильм Астерикс против Цезаря через торрент бесплантно в хорошем качестве Описание: Однажды Обеликс влюбился в прекрасную Панацею. Приглянулась она ему. Казалось бы, дело к свадьбе. Но гордая Панацея не разделила ... 10 10 6
Info! Золотая раздача, скачанное не засчитывается.
Торрент: Зарегистрирован [2013-04-02 04:34] · скачан: 113 раз
Статус: √ проверено
Размер: 744 MB
Как cкачать? Как скачать Астерикс против Цезаря через торрент | qTorrent

28-11-2019 20:33  

Отключить всю рекламу на сайте

    Дорогой пользователь! Огромная просьба, поблагодарите релизера, оцените раздачу и оставьте свои комментарий, если Вы скачали Астерикс против Цезаря через торрент бесплатно! Внесите свою лепту в развитие PiratBit!
    Комментировать посты могут только пользователи прошедшие не сложную регистрацию
    Показать сообщения:    

    Астерикс против Цезаря через торрент
    Скачать бесплатно Астерикс против Цезаря
    Астерикс против Цезаря скачать торрент
    Астерикс против Цезаря смотреть онлайн
    Cкачать фильм Астерикс против Цезаря бесплатно
    Астерикс против Цезаря скачать торрент в хорошем качестве
    Астерикс против Цезаря смотреть онлайн бесплатно в хорошем качестве


    Вы не можете начинать темы
    Вы не можете отвечать на сообщения
    Вы не можете редактировать свои сообщения
    Вы не можете удалять свои сообщения
    Вы не можете голосовать в опросах
    Вы не можете прикреплять файлы к сообщениям
    Вы можете скачивать файлы