Ссылка на приватное зеркало нашего сайта всего за 1$. Внимание количество ограничено!!!

2 сезон

iTunes

1 сезон

1

2 сезон

2 сезон

iTunes

1 сезон

RePack

30

Новинка

ВАЖНО

ИГРА 18+

pack

RePack

MK11
pack

Забери бонус

RePack

jed

!!Акция!!

Alien_Rage

RePack

fifa19

RePack

Assassins Creed: Odyssey

RePack

NEED FOR SPEED™ PAYBACK

4 сезон

9 сезон

Бесстыжие 9 сезон

Все сериалы

все сериалы на PB.wtf

RePack

FAR CRY 5
  

Экипаж / Flight (Роберт Земекис / Robert Zemeckis) [2012 г., Драма, HDRip] DUB pb.wtf

Экипаж через торрент pb.wtf

Размер: 935 MB | Добавлен: 7 лет 8 мес. назад | Торрент скачан:237 раз
Скачать  

02-04-2013 05:35 Экипаж Скачать торрент  

Экипаж / Flight
Год выпуска: 2012 г.
Страна: США
Жанр: Драма
Продолжительность: 02:18:35
Перевод: Профессиональный (дублированный) - [Лицензия]
Cубтитры: нет

Режиссер: Роберт Земекис / Robert Zemeckis

В ролях: Дензел Вашингтон, Дон Чидл, Келли Райлли, Джон Гудмен, Надин Веласкес, Картер Кабасса, Адам Чизельски, Тамара Тюни, Брайан Джерати, Конор О’Нилл

Описание: Опытный пилот Уип Вайтекер чудом избегает крушения самолета, и, совершив аварийную посадку, сохраняет жизни практически всех пассажиров. Уипа чествуют, как героя, но чем больше появляется подробностей о катастрофе, тем больше вопросов возникает: что же на самом деле произошло на борту самолёта…

Качество видео: HDRip
Формат видео: AVI
Видео кодек: XviD
Аудио кодек: MP3
Видео: 688x288 (2.39:1), 23.976 fps, XviD build 64 ~806 kbps avg, 0.17 bit/pixel
Аудио: 48 kHz, MPEG Layer 3, 2 ch, ~128.00 kbps avg

D:Мои рипыJekipazh.2012.D.HDRip. by dexter lex.avi
General
Complete name : D:Мои рипыJekipazh.2012.D.HDRip. by dexter lex.avi
Format : AVI
Format/Info : Audio Video Interleave
File size : 935
  
Duration : 2h 18mn
Overall bit rate : 943 Kbps
Writing application : VirtualDubMod 1.5.10.3 | www.virtualdub-fr.org || (build 2550/release)
Writing library : VirtualDubMod build 2550/release
Video #0
ID : 0
Format : MPEG-4 Visual
Format profile : Advanced Simple@L5
Format settings, BVOP : 1
Format settings, QPel : No
Format settings, GMC : No warppoints
Format settings, Matrix : Custom
Codec ID : XVID
Codec ID/Hint : XviD
Duration : 2h 18mn
Bit rate : 806 Kbps
Width : 688 pixels
Height : 288 pixels
Display aspect ratio : 2.39:1
Frame rate : 23.976 fps
Color space : YUV
Chroma subsampling : 4:2:0
Bit depth : 8 bits
Scan type : Progressive
Compression mode : Lossy
Bits/(Pixel*Frame) : 0.170
Stream size : 799 MiB (85%)
Writing library : XviD 64
Audio #1
ID : 1
Format : MPEG Audio
Format version : Version 1
Format profile : Layer 3
Codec ID : 55
Codec ID/Hint : MP3
Duration : 2h 18mn
Bit rate mode : Constant
Bit rate : 128 Kbps
Channel(s) : 2 channels
Sampling rate : 48.0 KHz
Compression mode : Lossy
Stream size : 127 MiB (14%)
Alignment : Aligned on interleaves
Interleave, duration : 42 ms (1.00 video frame)
Interleave, preload duration : 504 ms
Writing library : LAME3.99r
Encoding settings : -m s -V 4 -q 2 -lowpass 17 -b 128
http://multi-up.com/834054
pb.wtf



Скачать Экипаж через торрент http://i52.fastpic.ru/big/2013/0221/0e/3da326624cc91c795eab21146b61e30e.jpg Скачать фильм Экипаж через торрент бесплантно в хорошем качестве Описание: Опытный пилот Уип Вайтекер чудом избегает крушения самолета, и, совершив аварийную посадку, сохраняет жизни практически всех ... 9 10 11
Info! Золотая раздача, скачанное не засчитывается.
Торрент: Зарегистрирован [2013-04-02 05:35] · скачан: 237 раз
Статус: √ проверено
Размер: 935 MB
Как cкачать? Как скачать Экипаж через торрент | qTorrent

% Раздел Тема Автор DL S | L
Фильмы [HD 720p, 1080p] (Хороший звук DUB, MVO) [ 14.6 GB ] Экипаж / Flight [2012 BDRip 1080p DUB русский украинский + оригинал + профессиональный + профессиональный ] Sудья Скачать
1 | 0
Фильмы 2012 [ 1.46 GB ] Экипаж / Flight [2012 BDRip-AVC] DUB Rzhavec Скачать
1 | 0
Фильмы (Blu-ray, BD-Remux, HDDVD) [ 41.79 GB ] Экипаж / Flight [2012 Blu-Ray CEE DUB лицензия] Pavlin Скачать
1 | 0
Фильмы [HD 720p, 1080p] (Хороший звук DUB, MVO) [ 9.32 GB ] Экипаж / Flight [2012 BDRip 720p DUB лицензия] Ke$h@ Скачать
1 | 0
Фильмы 2012 [ 754 MB ] Экипаж / Flight [2012 BDRip] DUB Oдин 777 Скачать
1 | 0
Фильмы 2012 [ 2.18 GB ] Экипаж / Flight [2012 HDRip DUB лицензия] yuivan Скачать
1 | 0


Последний раз редактировалось: dexter lex (2013-04-02 05:40), всего редактировалось 1 раз

28-11-2019 20:33  

Отключить всю рекламу на сайте

02-04-2013 05:38 Экипаж Скачать торрент  

http://pb.wtf/topic/103348/

Качество: BDRip
Формат: AVI
Видео кодек: XviD
Аудио кодек: MP3
Видео: 640x272 (2.35:1), 23.976 fps, XviD build 50 ~655 kbps avg, 0.16 bit/pixel
Аудио: 32 kHz, MPEG Layer 3, 2 ch, ~96.00 kbps avg

У меня большие преимущества, не пойму почему размер такой маленький. Продолжительность больше двух часов. "Один" что то напортачил в рипе.pb.wtf



02-04-2013 06:36 Экипаж Скачать торрент  

а кто в авиации разбирается?вообще реально такой манёвр сделать?pb.wtf



02-04-2013 09:51 Экипаж Скачать торрент  

Nastuha_13 писал(а):

а кто в авиации разбирается?вообще реально такой манёвр сделать?

Если чисто логически представить,то возможноpb.wtf



06-04-2013 15:51 Экипаж Скачать торрент  

Nastuha_13 писал(а):

а кто в авиации разбирается?вообще реально такой манёвр сделать?

надо быть везунчиком и мастером своего дела... вообщем,это лишь фильм.В жизни,вряд ли,осознанно кто то такое повторит)))pb.wtf



    Дорогой пользователь! Огромная просьба, поблагодарите релизера, оцените раздачу и оставьте свои комментарий, если Вы скачали Экипаж через торрент бесплатно! Внесите свою лепту в развитие PiratBit!
    Комментировать посты могут только пользователи прошедшие не сложную регистрацию
    Показать сообщения:    

    Экипаж через торрент
    Скачать бесплатно Экипаж
    Экипаж скачать торрент
    Экипаж смотреть онлайн
    Cкачать фильм Экипаж бесплатно
    Экипаж скачать торрент в хорошем качестве
    Экипаж смотреть онлайн бесплатно в хорошем качестве


    Вы не можете начинать темы
    Вы не можете отвечать на сообщения
    Вы не можете редактировать свои сообщения
    Вы не можете удалять свои сообщения
    Вы не можете голосовать в опросах
    Вы не можете прикреплять файлы к сообщениям
    Вы можете скачивать файлы