2 сезон

iTunes

1 сезон

1

iTunes

iTunes

iTunes

1 сезон

RePack

30

ИГРА 18+

pack

ВАЖНО

!!Акция!!

Alien_RageХит недели

RePack

MK11
pack

Забери бонус

RePack

jed

!!Акция!!

Alien_Rage

RePack

fifa19

RePack

Assassins Creed: Odyssey

RePack

NEED FOR SPEED™ PAYBACK

4 сезон

9 сезон

Бесстыжие 9 сезон

Все сериалы

все сериалы на PB.wtf

RePack

FAR CRY 5
  

Шевели ластами 2 / Sammy's avonturen 2 (Бен Стассен / Ben Stassen) [2012, Бельгия, Мультфильм, приключения, HDRip] Dub (лицензия) pb.wtf

Шевели ластами 2 через торрент pb.wtf

Размер: 745 MB | Добавлен: 7 лет 6 мес. назад | Торрент скачан:783 раза
Скачать  

02-04-2013 08:16 Шевели ластами 2 Скачать торрент  

Шевели ластами 2 / Sammy's avonturen 2
Год выпуска: 2012
Страна: Бельгия
Жанр: мультфильм, приключения
Продолжительность: 01:32:50
Перевод: Профессиональный (полное дублирование) [лицензия]
Субтитры: Нет
Режиссер: Бен Стассен / Ben Stassen
В ролях: Билли Ангер (Sammy, озвучка), Пэт Кэрролл (озвучка), Карлос МакКаллерс II (Ray, озвучка), Синда Адамс (Veterinarian), Дино Андраде (Manuel Hogfish), Крис Эндрю Кулла (Russian Snowcrab, озвучка), Изабель Фурман (Shelly, озвучка), Уэсли Джонни (Sammy), Силье Рейномо (Several voices, (Norwegian)), Дуглас Райан Рот (Seagul #3), Майкл Сунь Ли (Japanese Fisherman), Джо Томас (Lulu the Lobster, озвучка)
Дублёры: Кирилл Туранский, Наталья Терешкова, Пётр Иващенко, Анна Денисова
Описание: Верные друзья навсегда, черепахи Сэмми и Рей, наслаждаются размеренной жизнью вблизи океана, а также присматривают за только что вылупившимися Рикки и Эллой. Внезапно, браконьер хватает больших черепах, они нужны ему для захватывающего морского шоу в Дубае. Центральная фигура шоу, морской конёк Большой Ди, посвящает новичков в свои планы на грандиозный побег.
Но, когда маленькие Рикки и Элла прибывают, чтобы спасти «дедушек», планы черепах и их новых друзей: пучеглазой рыбки Джимбо, осьминога Анабель, омара и большой семьи пингвинов, меняются. После ряда волнующих приключений и побегов, наши герои направляются на юг, чтобы встретиться с Шелли, первой и единственной любовью Сэмми.
Качество: HDRip
Формат: AVI
Видео кодек: XviD
Аудио кодек: MP3
Видео: 688x384 (1.79:1), 23.976 fps, XviD build 64 ~983 kbps avg, 0.16 bit/pixel
Аудио: 48 kHz, MPEG Layer 3, 2 ch, ~128.00 kbps avg

Релиз от:
D:Мои рипыШевели ластами. HDRip by rip dexter lex.avi
General
Complete name : D:Мои рипыШевели ластами. HDRip by rip dexter lex.avi
Format : AVI
Format/Info : Audio Video Interleave
File size : 745 MiB
Duration : 1h 32mn
Overall bit rate : 1 121 Kbps
Writing application : VirtualDubMod 1.5.10.3 | www.virtualdub-fr.org || (build 2550/release)
Writing library : VirtualDubMod build 2550/release
Video #0
ID : 0
Format : MPEG-4 Visual
Format profile : Advanced Simple@L5
Format settings, BVOP : 1
Format settings, QPel : No
Format settings, GMC : No warppoints
Format settings, Matrix : Custom
Codec ID : XVID
Codec ID/Hint : XviD
Duration : 1h 32mn
Bit rate : 984 Kbps
Width : 688 pixels
Height : 384 pixels
Display aspect ratio : 1.79:1
Frame rate : 23.976 fps
Color space : YUV
Chroma subsampling : 4:2:0
Bit depth : 8 bits
Scan type : Progressive
Compression mode : Lossy
Bits/(Pixel*Frame) : 0.155
Stream size : 653 MiB (88%)
Writing library : XviD 64
Audio #1
ID : 1
Format : MPEG Audio
Format version : Version 1
Format profile : Layer 3
Codec ID : 55
Codec ID/Hint : MP3
Duration : 1h 32mn
Bit rate mode : Constant
Bit rate : 128 Kbps
Channel(s) : 2 channels
Sampling rate : 48.0 KHz
Compression mode : Lossy
Stream size : 85.0 MiB (11%)
Alignment : Aligned on interleaves
Interleave, duration : 42 ms (1.00 video frame)
Interleave, preload duration : 504 ms
Writing library : LAME3.99r
Encoding settings : -m s -V 4 -q 2 -lowpass 17 -b 128
pb.wtf



Скачать Шевели ластами 2 через торрент http://i54.fastpic.ru/big/2012/1215/a0/6c5a6eda7e0e159af3ec872d242502a0.png Скачать фильм Шевели ластами 2 через торрент бесплантно в хорошем качестве Описание: Верные друзья навсегда, черепахи Сэмми и Рей, наслаждаются размеренной жизнью вблизи океана, а также присматривают за только что ... 10 10 21
Info! Золотая раздача, скачанное не засчитывается.
Торрент: Зарегистрирован [2013-04-02 08:16] · скачан: 783 раз
Статус: √ проверено
Размер: 745 MB
Как cкачать? Как скачать Шевели ластами 2 через торрент | qTorrent

28-11-2019 20:33  

Отключить всю рекламу на сайте

    Дорогой пользователь! Огромная просьба, поблагодарите релизера, оцените раздачу и оставьте свои комментарий, если Вы скачали Шевели ластами 2 через торрент бесплатно! Внесите свою лепту в развитие PiratBit!
    Комментировать посты могут только пользователи прошедшие не сложную регистрацию
    Показать сообщения:    

    Шевели ластами 2 через торрент
    Скачать бесплатно Шевели ластами 2
    Шевели ластами 2 скачать торрент
    Шевели ластами 2 смотреть онлайн
    Cкачать фильм Шевели ластами 2 бесплатно
    Шевели ластами 2 скачать торрент в хорошем качестве
    Шевели ластами 2 смотреть онлайн бесплатно в хорошем качестве


    Вы не можете начинать темы
    Вы не можете отвечать на сообщения
    Вы не можете редактировать свои сообщения
    Вы не можете удалять свои сообщения
    Вы не можете голосовать в опросах
    Вы не можете прикреплять файлы к сообщениям
    Вы можете скачивать файлы