1 сезон

3 сезон

iTunes

1

Line

MVO

iTunes

13

1 сезон

RePack

30

Deluxe

pack

Лицензия

ВАЖНО

ИГРА 18+

pack

RePack

MK11

RePack

jed

RePack

fifa19

RePack

RDR2

RePack

NEED FOR SPEED™ PAYBACK

4 сезон

9 сезон

Бесстыжие 9 сезон

Все сериалы

все сериалы на PB.wtf

RePack

FAR CRY 5

Anonymous, добрый вечер, мы катастрофически не успеваем собрать деньги на оплату серверов, помогите нам пожалуйста 5,10,15р., для нас важна любая помощь . В качестве благодарности мы отключим Вам всю рекламу на сайте (укажите свой ник в строку Ваше имя)!

×
  
Magnet ссылка

Калейдоскоп любви / 360 (Фернанду Мейреллиш / Fernando Meirelles) [2011, драма, мелодрама, DVD5] R5 pb.wtf

Калейдоскоп любви через торрент pb.wtf

Размер: 4.22 GB | Добавлен: 8 лет 3 мес. назад | Торрент скачан:8 раз
Скачать  

01-04-2013 20:13 Калейдоскоп любви Скачать торрент  


Калейдоскоп любви / 360
«Everything comes full circle.»
Страна: Великобритания, Австрия, Франция, Бразилия
Студия: Östereichisches Filminstitut, BBC Films, Dor Film Produktionsgesellschaft GmbH, EDS Pictures, Fidélité Films, Gravity Entertainment, Hero Entertainment, Location Austria, Muse Productions, O2 Filmes, ORF Film/Fernseh-Abkommen, Prescience, Revolution Films, UK Film Council, Unison Films, Vienna Film Financing Fund, Wild Bunch
Жанр: драма, мелодрама
Год выпуска: 2011
Мировая премьера: 9 сентября 2011
Российская премьера: 14 февраля 2013
Дата выхода DVD: 28 марта 2013
Продолжительность: 01:45:34
Перевод: Профессиональный (многоголосый закадровый) [Лицензия]
Cубтитры: нет
Оригинальная аудиодорожка: нет
Режиссер: Фернанду Мейреллиш / Fernando Meirelles
В ролях: Луция Сипосова, Габриэла Марчинкова, Йоханнес Криш, Джуд Лоу, Мориц Бляйбтрой, Жамель Деббуз, Динара Друкарова, Владимир Вдовиченков, Рейчел Вайс, Джулиано Казарре
Описание: Они — из разных социальных слоев. Но что-то притягивает их друг к другу. Только секс? Или это все-таки любовь? Ведь человек всегда глубже того, чем он сам думает о себе…
Несколько современных историй о персонажах из разных городов и стран, объединены в яркий, напряженный, пропитанный ожиданием и проникающий в душу рассказ о любви. Начинаясь в Вене, захватывающее повествование переносит зрителя в Париж, Лондон, Братиславу, Рио, Денвер и Финикс.

Бонусы: нет

Релиз группы:
Качество: DVD5 R5
Формат: DVD-Video
Видео кодек: MPEG2
Аудио кодек: AC3
Видео: PAL 16:9 (720x576(0.488)) MPEG Video, 25,000 кадр/сек, 5062 Кбит/сек
Аудио: Russian (Dolby AC3, 6 ch) 448 Кбит/сек, 48,0 КГц



Title: Kalejdoskop.ljubvi.2011.DVD5
Size: 4.22 Gb ( 4 420 302,00 KBytes ) - DVD-5
Enabled regions: 1, 2, 3, 4, 5, 6, 7, 8

VTS_01 :
Play Length: 01:45:33
Video: PAL 16:9 (720x576) VBR, Auto Letterboxed
Audio:
Russian (Dolby AC3, 6 ch)

VTS_02 :
Play Length: 00:00:08
Video: PAL 4:3 (720x576) VBR

VTS_03 :
Play Length: 00:00:21
Video: PAL 16:9 (720x576) VBR, Auto Letterboxed
Audio:
English (Dolby AC3, 2 ch)

* Menus Information *

VIDEO_TS Menu
Video:
NTSC 4:3 (720x480) VBR
Auto Pan&Scan, Auto Letterboxed
Russian Language Unit :
Title Menu

VTS_01 Menu
Video:
PAL 16:9 (720x576) VBR
Auto Letterboxed
Audio:
Not specified (Dolby AC3, 2 ch)
Russian Language Unit :
Root Menu
Chapter (PTT) Menu

VTS_02 Menu
Video:
NTSC 4:3 (720x480) VBR
Auto Pan&Scan, Auto Letterboxed
Language Unit :
Chapter (PTT) Menu

VTS_03 Menu
Video:
NTSC 4:3 (720x480) VBR
Auto Pan&Scan, Auto Letterboxed
Language Unit :
Chapter (PTT) Menu
Общее
Полное имя : L:Новинки 2013Kalejdoskop.ljubvi.2011.DVD5VIDEO_TSVTS_01_2.VOB
Формат : MPEG-PS
Размер файла : 1024 Мбайт
Продолжительность : 25 м.
Режим общего битрейта : Переменный
Общий поток : 5622 Кбит/сек

Видео
Идентификатор : 224 (0xE0)
Формат : MPEG Video
Версия формата : Version 2
Профиль формата : Main@Main
Параметр BVOP формата : Да
Параметр матрицы формата : Выборочная
Параметр GOP формата : M=3, N=15
Продолжительность : 25 м.
Вид битрейта : Переменный
Битрейт : 5062 Кбит/сек
Максимальный битрейт : 8000 Кбит/сек
Ширина : 720 пикселей
Высота : 576 пикселей
Соотношение сторон : 16:9
Частота кадров : 25,000 кадров/сек
Стандарт вещания : PAL
Цветовое пространство : YUV
Субдискретизация насыщенности : 4:2:0
Битовая глубина : 8 бит
Тип развёртки : Чересстрочная
Порядок развёртки : Верхнее поле первое
Метод сжатия : С потерями
Бит/(Пиксели*Кадры) : 0.488
Размер потока : 922 Мбайт (90%)

Аудио
Идентификатор : 189 (0xBD)-128 (0x80)
Формат : AC-3
Формат/Информация : Audio Coding 3
Расширение режима : CM (complete main)
Параметр Endianness формата : Big
Режим смешивания : DVD-Video
Продолжительность : 25 м.
Вид битрейта : Постоянный
Битрейт : 448 Кбит/сек
Каналы : 6 каналов
Расположение каналов : Front: L C R, Side: L R, LFE
Частота : 48,0 КГц
Битовая глубина : 16 бит
Метод сжатия : С потерями
Задержка видео : -304 мс.
Размер потока : 81,6 Мбайт (8%)










pb.wtf



Скачать Калейдоскоп любви через торрент http://s53.radikal.ru/i140/1304/05/932aa2f21ea8.jpg Скачать фильм Калейдоскоп любви через торрент бесплантно в хорошем качестве Описание: Они — из разных социальных слоев. Но что-то притягивает их друг к другу. Только секс? Или это все-таки любовь? Ведь человек ... 10 10 2
Info! Золотая раздача, скачанное не засчитывается.
Торрент: Зарегистрирован [2013-04-01 20:13] · скачан: 8 раз
Статус: √ проверено
Размер: 4.22 GB
Как cкачать? Как скачать Калейдоскоп любви через торрент | UTorrent

28-11-2019 20:33  

Отключить всю рекламу на сайте

    Дорогой пользователь! Огромная просьба, поблагодарите релизера, оцените раздачу и оставьте свои комментарий, если Вы скачали Калейдоскоп любви через торрент бесплатно! Внесите свою лепту в развитие PiratBit!
    Комментировать посты могут только пользователи прошедшие не сложную регистрацию
    Показать сообщения:    

    Калейдоскоп любви через торрент
    Скачать бесплатно Калейдоскоп любви
    Калейдоскоп любви скачать торрент
    Калейдоскоп любви смотреть онлайн
    Cкачать фильм Калейдоскоп любви бесплатно
    Калейдоскоп любви скачать торрент в хорошем качестве
    Калейдоскоп любви смотреть онлайн бесплатно в хорошем качестве


    Вы не можете начинать темы
    Вы не можете отвечать на сообщения
    Вы не можете редактировать свои сообщения
    Вы не можете удалять свои сообщения
    Вы не можете голосовать в опросах
    Вы не можете прикреплять файлы к сообщениям
    Вы можете скачивать файлы