Мега распродажа FORZA HORIZON 4 ULTIMATE+ВСЕ DLC+ОНЛАЙН всего за 499р. 349 руб. (супер цена). Внимание количество ограничено!!!

iTunes

1+1

iTunes

мы

iTunes

1

1 сезон

Чернобыль

1 сезон

Ральф против интернета

Лицензия

ПШазам

8 сезон

Игра престолов

Лицензия

30
pack

ВАЖНО

!!Акция!!

Alien_RageХит недели

RePack

Resident Evil 21

ИГРА 18+

pack

RePack

Metro:Exodus

!!Акция!!

Alien_Rage

RePack

fifa19

RePack

Assassins Creed: Odyssey

RePack

NEED FOR SPEED™ PAYBACK

3 сезон

9 сезон

Бесстыжие 9 сезон

Все сериалы

все сериалы на PB.wtf

RePack

FAR CRY 5
Ребята, катастрофически не хватает 2730р. для оплаты серверов за ИЮНЬ (всвязи с блокировками трафик упал в 3 раза), 1-2р., выручайте.
  

Дом ночных призраков / House on Haunted Hill (Уильям Мэлоун) [1999 г., ужасы, триллер, детектив, DVDRip, MVO, лицензия] pb.wtf

Дом ночных призраков через торрент pb.wtf

Размер: 2.63 GB | Добавлен: 6 лет 3 мес. назад | Торрент скачан:45 раз
Скачать  

03-04-2013 10:29 Дом ночных призраков Скачать торрент  

Дом ночных призраков / House on Haunted Hill
Год выпуска: 1999
Страна: США
Жанр: ужасы, триллер, детектив,
Продолжительность: 93 мин. / 01:33
Перевод: Профессиональный одноголосый, Лицензия

Режиссер: Уильям Мэлоун
Продюссер: Гилберт Адлер, Джоэл Силвер, Роберт Земекис
Сценарий: Дик Биби, Робб Уайт

Бюджет: $37 000 000
Премьера в мире: 27 октября 1999

В ролях: Джеффри Раш, Фамке Янссен, Тэй Диггз, Питер Галлахер, Крис Кэттэн, Эли Лартер, Бриджит Уилсон, Макс Перлих, Джеффри Комбс, Дик Биби.,

Описание: Эксцентричный миллионер по имени Стивен Прайс решает отметить день рождения своей горячо нелюбимой жены Эвилен в заброшенном доме с жутким прошлым. В нем много лет назад некий доктор-маньяк проводил бесчеловечные эксперименты и зверски мучил своих пациентов.
Список приглашенных кто-то загадочным образом подменяет, и в дом на холме приезжают совершенно незнакомые друг другу люди. Прайс предлагает миллион долларов каждому, кто останется в доме до утра… Душераздирающая вечеринка начинается! Качество: DVDRip
Формат: mkv
Видео кодек: .H.264
Аудио кодек: AC3
Видео: 4000 Кбит/сек 1280 х 528 пикселей 23,976 кадра/сек
Аудио#1: 192 Кбит/сек 2 канала 48 КГц




Общее
Формат : Matroska
Версия формата : Version 2
Размер файла : 2,63 Гбайт
Продолжительность : 1 ч. 21 м.
Общий поток : 4641 Кбит/сек
Дата кодирования : UTC 2013-03-16 01:19:16
Программа кодирования : mkvmerge v4.6.0 ('Still Crazy After All These Years') сборка от Mar 10 2011 02:50:32
Библиотека кодирования : libebml v1.2.0 + libmatroska v1.1.0

Видео
Идентификатор : 1
Формат : AVC
Формат/Информация : Advanced Video Codec
Профиль формата : High@L4.1
Параметр CABAC формата : Да
Параметр ReFrames формата : 2 кадра
Идентификатор кодека : V_MPEG4/ISO/AVC
Продолжительность : 1 ч. 21 м.
Битрейт : 4000 Кбит/сек
Ширина : 1280 пикселей
Высота : 528 пикселей
Соотношение сторон : 2,40:1
Соотношение сторон в оригинале : 2,40:1
Режим частоты кадров : Переменный
Частота кадров : 23,976 кадра/сек
Цветовое пространство : YUV
Субдискретизация насыщенности : 4:2:0
Битовая глубина : 8 бит
Тип развёртки : Прогрессивная
Бит/(Пиксели*Кадры) : 0.247
Размер потока : 2,22 Гбайт (84%)
Заголовок : Return_to_House_on_Haunted_Hill
Библиотека кодирования : x264 core 130 r2273
Default : Да
Forced : Нет

Аудио #1
Идентификатор : 2
Формат : AC-3
Формат/Информация : Audio Coding 3
Расширение режима : CM (complete main)
Идентификатор кодека : A_AC3
Продолжительность : 1 ч. 21 м.
Вид битрейта : Постоянный
Битрейт : 192 Кбит/сек
Каналы : 2 канала
Расположение каналов : Front: L R
Частота : 48,0 КГц
Битовая глубина : 16 бит
Метод сжатия : С потерями
Размер потока : 112 Мбайт (4%)
Заголовок : AVO_Dolsky
Язык : Russian
Default : Да
Forced : Нет

Аудио #2
Идентификатор : 3
Формат : AC-3
Формат/Информация : Audio Coding 3
Расширение режима : CM (complete main)
Идентификатор кодека : A_AC3
Продолжительность : 1 ч. 21 м.
Вид битрейта : Постоянный
Битрейт : 448 Кбит/сек
Каналы : 6 каналов
Расположение каналов : Front: L C R, Side: L R, LFE
Частота : 48,0 КГц
Битовая глубина : 16 бит
Метод сжатия : С потерями
Размер потока : 260 Мбайт (10%)
Заголовок : ENG
Язык : English
Default : Нет
Forced : Нет

Текст
Идентификатор : 4
Формат : UTF-8
Идентификатор кодека : S_TEXT/UTF8
Идентификатор кодека/Информация : UTF-8 Plain Text
Язык : English
Default : Да
Forced : Нет

pb.wtf



Скачать Дом ночных призраков через торрент http://pic.kartinco.top/images/2/p8osipdb1u.jpg Скачать фильм Дом ночных призраков через торрент бесплантно в хорошем качестве Описание: Эксцентричный миллионер по имени Стивен Прайс решает отметить день рождения своей горячо нелюбимой жены Эвилен в заброшенном доме ... 9.8 10 11
Info! Золотая раздача, скачанное не засчитывается.
Торрент: Зарегистрирован [2013-04-03 10:29] · скачан: 45 раз
Статус: √ проверено
Размер: 2.63 GB
Как cкачать? Как скачать Дом ночных призраков через торрент | qTorrent

% Раздел Тема Автор DL S | L
Фильмы (HD 720p, 1080p) (48-60 fps) [ 10.43 GB ] Дом ночных призраков / House on Haunted Hill [1999 BDRip 720p by mimok Dub+2xMVO+3xAVO] 60fps mimok Скачать
1 | 0
Фильмы 2006-2008 [ 1.45 GB ] Возвращение в дом ночных призраков / Return to House on Haunted Hill [2007 BDRip] MVO DEVI Скачать
1 | 0
Фильмы до 2000 г. [ 1.45 GB ] Дом ночных призраков / House on Haunted Hill [1999 BDRip MVO лицензия] Alex_E Скачать
1 | 0
Фильмы до 2000 г. [ 2.81 GB ] Дом ночных призраков / House On Haunted Hill [1999 BDRip] NarutoSasuke Скачать
1 | 0
Фильмы до 2000 г. [ 687 MB ] Дом ночных призраков / House on Haunted Hill [1999 DVDRip Пиратка] BuHTuK Скачать
1 | 0


>> Регистрируемся здесь <<






Отзывы и комментарии о схеме читаем и пишем здесь: ---> Отзывы и комментарии о схеме

Новые благодарочки в телеграм довольных пользователей:
скриншот   скриншот   скриншот   скриншот   скриншот

03-04-2013 12:41 Дом ночных призраков Скачать торрент  

а есть вторая часть с норм переводом?pb.wtf



03-04-2013 16:31 Дом ночных призраков Скачать торрент  

А скорость есть???pb.wtf



04-04-2013 09:51 Дом ночных призраков Скачать торрент  

jetli23 писал(а):

а есть вторая часть с норм переводом?

если найду скинуpb.wtf



    Дорогой пользователь! Огромная просьба, поблагодарите релизера, оцените раздачу и оставьте свои комментарий, если Вы скачали Дом ночных призраков через торрент бесплатно! Внесите свою лепту в развитие PiratBit!
    Комментировать посты могут только пользователи прошедшие не сложную регистрацию
    Показать сообщения:    

    Дом ночных призраков через торрент
    Скачать бесплатно Дом ночных призраков
    Дом ночных призраков скачать торрент
    Дом ночных призраков смотреть онлайн
    Cкачать фильм Дом ночных призраков бесплатно
    Дом ночных призраков скачать торрент в хорошем качестве
    Дом ночных призраков смотреть онлайн бесплатно в хорошем качестве


    Вы не можете начинать темы
    Вы не можете отвечать на сообщения
    Вы не можете редактировать свои сообщения
    Вы не можете удалять свои сообщения
    Вы не можете голосовать в опросах
    Вы не можете прикреплять файлы к сообщениям
    Вы можете скачивать файлы