1 сезон

3 сезон

iTunes

1

Line

MVO

iTunes

13

1 сезон

RePack

30

Deluxe

pack

Лицензия

ВАЖНО

ИГРА 18+

pack

RePack

MK11

RePack

jed

RePack

fifa19

RePack

RDR2

RePack

NEED FOR SPEED™ PAYBACK

4 сезон

9 сезон

Бесстыжие 9 сезон

Все сериалы

все сериалы на PB.wtf

RePack

FAR CRY 5

Anonymous, доброе утро, мы катастрофически не успеваем собрать деньги на оплату серверов, помогите нам пожалуйста 5,10,15р., для нас важна любая помощь . В качестве благодарности мы отключим Вам всю рекламу на сайте (укажите свой ник в строку Ваше имя)!

×
  
Magnet ссылка

Особые отношения / Sans queue ni tete (Жанна Лабрюн / Jeanne Labrune) [2010, драма, комедия, DVD5] R5 pb.wtf

Особые отношения через торрент pb.wtf

Размер: 3.24 GB | Добавлен: 8 лет 3 мес. назад | Торрент скачан:25 раз
Скачать  

03-04-2013 20:15 Особые отношения Скачать торрент  


Особые отношения / Sans queue ni tete
Страна: Франция, Люксембург, Бельгия
Студия: Artémis Productions, Art-Light Productions, Banque Populaire Images 10, Banque Postale Image 3, La,Bruxelles Capitale, Canal+ [fr], Ciné Cinémas, Fonds National de Soutien à la Production Audiovisuelle du Luxembourg, Liaison Cinématographique, Programme MEDIA de la Communauté Européenne, Région Wallone, Radio Télévision Belge Francofone (RTBF), Samsa Film S.a.r.l., Soficinéma 6, Taxshelter. be
Жанр: драма, комедия
Год выпуска: 2010
Мировая премьера: 29 сентября 2010
Российская премьера: 2 декабря 2010
Дата выхода DVD: 4 марта 2013
Продолжительность: 01:31:52
Перевод: Студийный (одноголосный закадровый) [Лицензия]
Cубтитры: нет
Оригинальная аудиодорожка: нет
Режиссер: Жанна Лабрюн / Jeanne Labrune
В ролях: Изабель Юппер, Були Ланнер, Ришар Дебуин, Сабилла Мусадек, Валери Древиль, Дидье Безас, Матье Каррьер, Жиль Коэн, Фредерик Лонгбуа, Кристоф Одан, Фредерик Пьеро, Жан-Франсуа Волфф
Описание: Элис сделала карьеру в качестве представительницы дорогого эскорта. Ей уже за сорок, она устала от своей древнейшей профессии, жизнь ей наскучила, пришло время сменить род деятельности. Она обращается за помощью к опытному психологу.
Хавьер тот самый опытный психолог, редчайший специалист в своей области, сильно утомленный нескончаемыми монологами занудных проблемных клиентов. Он знакомится с Элис в тот момент, когда его брак рухнул, и переоценка ценностей стала навязчивой идеей.
Оба они ищут особых отношений…

Бонусы: нет

Релиз группы:
Качество: DVD5 R5
Формат: DVD-Video
Видео кодек: MPEG2
Аудио кодек: AC3
Видео: PAL 16:9 (720x576(0.429)) MPEG Video, 25,000 кадр/сек, 4453 Кбит/сек
Аудио: Russian (Dolby AC3, 2 ch) 448 Кбит/сек, 48,0 КГц



Title: Osobye otnoshenija.2010.DVD5
Size: 3.24 Gb ( 3 401 582,00 KBytes ) - DVD-5
Enabled regions: 1, 2, 3, 4, 5, 6, 7, 8

VTS_01 :
Play Length: 00:00:15
Video: PAL 4:3 (720x576) VBR
Audio:
Russian (Dolby AC3, 2 ch)

VTS_02 :
Play Length: 00:00:08
Video: PAL 16:9 (720x576) VBR, Auto Letterboxed
Audio:
Russian (Dolby AC3, 2 ch)

VTS_03 :
Play Length: 01:31:52
Video: PAL 16:9 (720x576) VBR, Auto Letterboxed
Audio:
Russian (Dolby AC3, 2 ch)

* Menus Information *

VIDEO_TS Menu
Video:
PAL 16:9 (720x576) VBR
Auto Pan&Scan
English Language Unit :
Title Menu

VTS_01 Menu
Video:
PAL 16:9 (720x576) VBR
Auto Letterboxed
Audio:
Not specified (Dolby AC3, 2 ch)
English Language Unit :
Root Menu
Chapter (PTT) Menu

VTS_02 Menu
Video:
PAL 4:3 (720x576) VBR
Auto Pan&Scan, Auto Letterboxed
English Language Unit :
Root Menu
Chapter (PTT) Menu

VTS_03 Menu
Video:
PAL 4:3 (720x576) VBR
Auto Pan&Scan, Auto Letterboxed
English Language Unit :
Root Menu
Chapter (PTT) Menu
Общее
Полное имя : L:Новинки 2013Osobye otnoshenija.2010.DVD5VIDEO_TSVTS_03_2.VOB
Формат : MPEG-PS
Размер файла : 1024 Мбайт
Продолжительность : 28 м.
Режим общего битрейта : Переменный
Общий поток : 5000 Кбит/сек

Видео
Идентификатор : 224 (0xE0)
Формат : MPEG Video
Версия формата : Version 2
Профиль формата : Main@Main
Параметр BVOP формата : Да
Параметр матрицы формата : Выборочная
Параметр GOP формата : M=3, N=12
Продолжительность : 28 м.
Вид битрейта : Переменный
Битрейт : 4453 Кбит/сек
Максимальный битрейт : 5300 Кбит/сек
Ширина : 720 пикселей
Высота : 576 пикселей
Соотношение сторон : 16:9
Частота кадров : 25,000 кадров/сек
Стандарт вещания : PAL
Цветовое пространство : YUV
Субдискретизация насыщенности : 4:2:0
Битовая глубина : 8 бит
Тип развёртки : Чересстрочная
Порядок развёртки : Нижнее поле первое
Метод сжатия : С потерями
Бит/(Пиксели*Кадры) : 0.429
Размер потока : 912 Мбайт (89%)

Аудио
Идентификатор : 189 (0xBD)-128 (0x80)
Формат : AC-3
Формат/Информация : Audio Coding 3
Расширение режима : CM (complete main)
Параметр Endianness формата : Big
Режим смешивания : DVD-Video
Продолжительность : 28 м.
Вид битрейта : Постоянный
Битрейт : 448 Кбит/сек
Каналы : 2 канала
Расположение каналов : Front: L R
Частота : 48,0 КГц
Битовая глубина : 16 бит
Метод сжатия : С потерями
Задержка видео : -672 мс.
Размер потока : 91,7 Мбайт (9%)










pb.wtf



Скачать Особые отношения через торрент http://i018.radikal.ru/1304/72/9f1737c6b900.jpg Скачать фильм Особые отношения через торрент бесплантно в хорошем качестве Описание: Элис сделала карьеру в качестве представительницы дорогого эскорта. Ей уже за сорок, она устала от своей древнейшей профессии, ... 10 10 3
Info! Золотая раздача, скачанное не засчитывается.
Торрент: Зарегистрирован [2013-04-03 20:15] · скачан: 25 раз
Статус: √ проверено
Размер: 3.24 GB
Как cкачать? Как скачать Особые отношения через торрент | UTorrent

28-11-2019 20:33  

Отключить всю рекламу на сайте

    Дорогой пользователь! Огромная просьба, поблагодарите релизера, оцените раздачу и оставьте свои комментарий, если Вы скачали Особые отношения через торрент бесплатно! Внесите свою лепту в развитие PiratBit!
    Комментировать посты могут только пользователи прошедшие не сложную регистрацию
    Показать сообщения:    

    Особые отношения через торрент
    Скачать бесплатно Особые отношения
    Особые отношения скачать торрент
    Особые отношения смотреть онлайн
    Cкачать фильм Особые отношения бесплатно
    Особые отношения скачать торрент в хорошем качестве
    Особые отношения смотреть онлайн бесплатно в хорошем качестве


    Вы не можете начинать темы
    Вы не можете отвечать на сообщения
    Вы не можете редактировать свои сообщения
    Вы не можете удалять свои сообщения
    Вы не можете голосовать в опросах
    Вы не можете прикреплять файлы к сообщениям
    Вы можете скачивать файлы