1 сезон

3 сезон

iTunes

1

Line

MVO

iTunes

13

1 сезон

RePack

30

Deluxe

pack

Лицензия

ВАЖНО

ИГРА 18+

pack

RePack

MK11

RePack

jed

RePack

fifa19

RePack

RDR2

RePack

NEED FOR SPEED™ PAYBACK

4 сезон

9 сезон

Бесстыжие 9 сезон

Все сериалы

все сериалы на PB.wtf

RePack

FAR CRY 5

Anonymous, доброй ночи, мы катастрофически не успеваем собрать деньги на оплату серверов, помогите нам пожалуйста 5,10,15р., для нас важна любая помощь . В качестве благодарности мы отключим Вам всю рекламу на сайте (укажите свой ник в строку Ваше имя)!

×
  
Magnet ссылка

Облава / La rafle (Розлин Бош / Rose Bosch) [2010, драма, военный, история, DVD5] R5 pb.wtf

Облава через торрент pb.wtf

Размер: 3.99 GB | Добавлен: 8 лет 3 мес. назад | Торрент скачан:74 раза
Скачать  

03-04-2013 20:41 Облава Скачать торрент  


Облава / La rafle
«Paris, 16 juillet 1942, 4 heures du matin...»
Страна: Франция, Германия, Венгрия
Студия: Alva Films, Canal+ [fr], Centre National de la Cinématographie (CNC), Ciné Cinémas, EOS Entertainment, Eurofilms Studios, Filmförderungsanstalt (FFA), Fondation pour la Mémoire de la Shoah, France 3 Cinéma, France Télévision, Gaumont, KS2 Cinéma, Légende Films, Légende des Siècles, Région Ile-de-France, SMTS, TF1, TF1 Films Production
Жанр: драма, военный, история
Год выпуска: 2010
Мировая премьера: 10 марта 2010
Российская премьера: 28 июля 2011
Дата выхода DVD: 28 февраля 2013
Продолжительность: 01:59:58
Перевод: Профессиональный (многоголосый закадровый) [Лицензия]
Cубтитры: нет
Оригинальная аудиодорожка: нет
Режиссер: Розлин Бош / Rose Bosch
В ролях: Жан Рено, Мелани Лоран, Гад Эльмале, Рафаэлла Агогуе, Хьюго Левердез, Оливер Цивье, Матье Ди Концерто, Ромайн Ди Концерто, Ребекка Мардер, Анн Броше, Изабелль Желина, Тьерри Фремон, Катрин Аллегре, Сильви Тестю, Сванн Арло, Армель, Надя Барантен, Филипп Ботье, Франсуа Бурелуп, Роланд Коуп, Патрик Куртуа, Холгер Дямген, Томас Дарчингер, Адель Экзаркопулос, Жан-Ив Фрейбургер, Йоханнес Оливер Хэмм, Джером Генри, Катрин Осмален, Тамаш Лендьель, Жан-Пьер Лори, Жамель Мехнан, Дэнис Меночет, Удо Шенк
Описание: История трех еврейских семей, основанная на реальных фактах. Главные герои оказываются в самом эпицентре событий, произошедших 16 и 17 июля 1942 года, когда французские полицейские задержали более 12 тысяч евреев и держали их на стадионе Вель-д`Ив. Условия содержания были ужасные, около сотни узников покончили жизнь самоубийством, а каждого, кто пытался бежать, расстреливали на месте. После шести дней в Вель-д`Иве евреев депортировали во французские лагеря Дранси, Бон-ла-Роланд и Питивьер, откуда потом этапировали в немецкие лагеря смерти.
Бонусы: нет

Релиз группы:
Качество: DVD5 R5
Формат: DVD-Video
Видео кодек: MPEG2
Аудио кодек: AC3
Видео: PAL 16:9 (720x576(0.387)) MPEG Video, 25,000 кадр/сек, 4017 Кбит/сек
Аудио #1: Russian (Dolby AC3, 2 ch) 192 Кбит/сек, 48,0 КГц
Аудио #2: Russian (Dolby AC3, 6 ch) 448 Кбит/сек, 48,0 КГц



Title: Oblava.2010.DVD5
Size: 3.99 Gb ( 4 187 872,00 KBytes ) - DVD-5
Enabled regions: 1, 2, 3, 4, 5, 6, 7, 8

VTS_01 :
Play Length: 01:59:58
Video: PAL 16:9 (720x576) VBR, Auto Letterboxed
Audio:
English (Dolby AC3, 2 ch)
English (Dolby AC3, 6 ch)

* Menus Information *

VIDEO_TS Menu
Video:
PAL 16:9 (720x576) VBR
Auto Letterboxed
English Language Unit :
Title Menu

VTS_01 Menu
Video:
PAL 16:9 (720x576) VBR
Auto Letterboxed
Audio:
Not specified (Dolby AC3, 2 ch)
English Language Unit :
Root Menu
Общее
Полное имя : L:Новинки 2013Oblava.2010.DVD5VIDEO_TSVTS_01_3.VOB
Формат : MPEG-PS
Размер файла : 1024 Мбайт
Продолжительность : 30 м.
Режим общего битрейта : Переменный
Общий поток : 4752 Кбит/сек

Видео
Идентификатор : 224 (0xE0)
Формат : MPEG Video
Версия формата : Version 2
Профиль формата : Main@Main
Параметр BVOP формата : Да
Параметр матрицы формата : Выборочная
Параметр GOP формата : Variable
Продолжительность : 30 м.
Вид битрейта : Переменный
Битрейт : 4017 Кбит/сек
Максимальный битрейт : 8100 Кбит/сек
Ширина : 720 пикселей
Высота : 576 пикселей
Соотношение сторон : 16:9
Частота кадров : 25,000 кадров/сек
Стандарт вещания : PAL
Цветовое пространство : YUV
Субдискретизация насыщенности : 4:2:0
Битовая глубина : 8 бит
Тип развёртки : Прогрессивная
Метод сжатия : С потерями
Бит/(Пиксели*Кадры) : 0.387
Размер потока : 865 Мбайт (85%)

Аудио #1
Идентификатор : 189 (0xBD)-128 (0x80)
Формат : AC-3
Формат/Информация : Audio Coding 3
Расширение режима : CM (complete main)
Параметр Endianness формата : Big
Режим смешивания : DVD-Video
Продолжительность : 30 м.
Вид битрейта : Постоянный
Битрейт : 192 Кбит/сек
Каналы : 2 канала
Расположение каналов : Front: L R
Частота : 48,0 КГц
Битовая глубина : 16 бит
Метод сжатия : С потерями
Задержка видео : -816 мс.
Размер потока : 41,4 Мбайт (4%)

Аудио #2
Идентификатор : 189 (0xBD)-129 (0x81)
Формат : AC-3
Формат/Информация : Audio Coding 3
Расширение режима : CM (complete main)
Параметр Endianness формата : Big
Режим смешивания : DVD-Video
Продолжительность : 30 м.
Вид битрейта : Постоянный
Битрейт : 448 Кбит/сек
Каналы : 6 каналов
Расположение каналов : Front: L C R, Side: L R, LFE
Частота : 48,0 КГц
Битовая глубина : 16 бит
Метод сжатия : С потерями
Задержка видео : -880 мс.
Размер потока : 96,5 Мбайт (9%)










pb.wtf



Скачать Облава через торрент http://s017.radikal.ru/i421/1304/e2/8fc9b77b2800.jpg Скачать фильм Облава через торрент бесплантно в хорошем качестве Описание: История трех еврейских семей, основанная на реальных фактах. Главные герои оказываются в самом эпицентре событий, произошедших 16 ... 9.1 10 7
Info! Золотая раздача, скачанное не засчитывается.
Торрент: Зарегистрирован [2013-04-03 20:41] · скачан: 74 раз
Статус: √ проверено
Размер: 3.99 GB
Как cкачать? Как скачать Облава через торрент | UTorrent

28-11-2019 20:33  

Отключить всю рекламу на сайте

04-04-2013 07:44 Облава Скачать торрент  

Думаю стоит посмотреть.pb.wtf



    Дорогой пользователь! Огромная просьба, поблагодарите релизера, оцените раздачу и оставьте свои комментарий, если Вы скачали Облава через торрент бесплатно! Внесите свою лепту в развитие PiratBit!
    Комментировать посты могут только пользователи прошедшие не сложную регистрацию
    Показать сообщения:    

    Облава через торрент
    Скачать бесплатно Облава
    Облава скачать торрент
    Облава смотреть онлайн
    Cкачать фильм Облава бесплатно
    Облава скачать торрент в хорошем качестве
    Облава смотреть онлайн бесплатно в хорошем качестве


    Вы не можете начинать темы
    Вы не можете отвечать на сообщения
    Вы не можете редактировать свои сообщения
    Вы не можете удалять свои сообщения
    Вы не можете голосовать в опросах
    Вы не можете прикреплять файлы к сообщениям
    Вы можете скачивать файлы