1 сезон

3 сезон

iTunes

1

Line

MVO

iTunes

13

1 сезон

RePack

30

Deluxe

pack

Лицензия

ВАЖНО

ИГРА 18+

pack

RePack

MK11

RePack

jed

RePack

fifa19

RePack

RDR2

RePack

NEED FOR SPEED™ PAYBACK

4 сезон

9 сезон

Бесстыжие 9 сезон

Все сериалы

все сериалы на PB.wtf

RePack

FAR CRY 5

Anonymous, доброй ночи, мы катастрофически не успеваем собрать деньги на оплату серверов, помогите нам пожалуйста 5,10,15р., для нас важна любая помощь . В качестве благодарности мы отключим Вам всю рекламу на сайте (укажите свой ник в строку Ваше имя)!

×
  
Magnet ссылка

Секс – за деньги, любовь – бесплатно / Nessuno mi puo giudicare (Массимилиано Бруно / Massimiliano Bruno) [2011, комедия, DVD5] R5 pb.wtf

Секс – за деньги, любовь – бесплатно через торрент pb.wtf

Размер: 3.92 GB | Добавлен: 8 лет 3 мес. назад | Торрент скачан:88 раз
Скачать  

03-04-2013 21:44 Секс – за деньги, любовь – бесплатно Скачать торрент  


Секс – за деньги, любовь – бесплатно / Nessuno mi puo giudicare
Страна: Италия
Студия: Italian International Film, Rai Cinema
Жанр: комедия
Год выпуска: 2011
Мировая премьера: 16 марта 2011
Дата выхода DVD: 15 апреля 2013
Продолжительность: 01:33:22
Перевод: Профессиональный (многоголосый закадровый) [Лицензия]
Cубтитры: нет
Оригинальная аудиодорожка: нет
Режиссер: Массимилиано Бруно / Massimiliano Bruno
В ролях: Паола Кортеллези, Рауль Бова, Рокко Папалео, Анна Фольетта, Джованни Бруно, Хассани Шапи, Валерио Эпри, Паскуале Петроло, Люсия Оконе, Ава Ли
Описание: Тридцатипятилетняя Алиса живет со своим мужем и девятилетним сыном в уютной вилле в престижном районе Рима Париоли. Жизнь ее кажется золотой мечтой, но скоро все это превратится в кошмар. Ее муж погибает в результате несчастного случая, а сама она становится полным банкротом.
Вместе со своим сыном она вынуждена покинуть Париоли и приютиться в предместье Рима, где оказывается совершенно чужой в океане людей самых разных национальностей и культур. Погрязшей в долгах Алисе приходится искать быстрый способ заработать деньги для себя и своего сына. Единственной возможностью для этого оказываются эскорт услуги.

Бонусы: нет

Релиз группы:
Качество: DVD5 R5
Формат: DVD-Video
Видео кодек: MPEG2
Аудио кодек: AC3
Видео: PAL 16:9 (720x576(0.511)) MPEG Video, 25,000 кадр/сек, 5294 Кбит/сек
Аудио: Russian (Dolby AC3, 6 ch) 448 Кбит/сек, 48,0 КГц



Title: Seks.za.dengi.ljubov.besplatno.2011.DVD5
Size: 3.92 Gb ( 4 113 560,00 KBytes ) - DVD-5
Enabled regions: 1, 2, 3, 4, 5, 6, 7, 8

VTS_01 :
Play Length: 00:00:10
Video: PAL 4:3 (720x576) VBR
Audio:
Russian (Dolby AC3, 2 ch)

VTS_02 :
Play Length: 01:33:22
Video: PAL 16:9 (720x576) VBR, Auto Letterboxed
Audio:
Russian (Dolby AC3, 6 ch)

* Menus Information *

VIDEO_TS Menu
Video:
PAL 4:3 (720x576) VBR
English Language Unit :
Title Menu

VTS_01 Menu
Video:
PAL 16:9 (720x576) VBR
Auto Letterboxed
Audio:
Not specified (Dolby AC3, 2 ch)
English Language Unit :
Root Menu

VTS_02 Menu
Video:
PAL 4:3 (720x576) VBR
English Language Unit :
Root Menu
Общее
Полное имя : L:Новинки 2013Seks.za.dengi.ljubov.besplatno.2011.DVD5VIDEO_TSVTS_02_1.VOB
Формат : MPEG-PS
Размер файла : 1024 Мбайт
Продолжительность : 24 м.
Режим общего битрейта : Переменный
Общий поток : 5859 Кбит/сек

Видео
Идентификатор : 224 (0xE0)
Формат : MPEG Video
Версия формата : Version 2
Профиль формата : Main@Main
Параметр BVOP формата : Да
Параметр матрицы формата : Выборочная
Параметр GOP формата : Variable
Продолжительность : 24 м.
Вид битрейта : Переменный
Битрейт : 5294 Кбит/сек
Максимальный битрейт : 9000 Кбит/сек
Ширина : 720 пикселей
Высота : 576 пикселей
Соотношение сторон : 16:9
Частота кадров : 25,000 кадров/сек
Стандарт вещания : PAL
Цветовое пространство : YUV
Субдискретизация насыщенности : 4:2:0
Битовая глубина : 8 бит
Тип развёртки : Прогрессивная
Метод сжатия : С потерями
Бит/(Пиксели*Кадры) : 0.511
Размер потока : 925 Мбайт (90%)

Аудио
Идентификатор : 189 (0xBD)-128 (0x80)
Формат : AC-3
Формат/Информация : Audio Coding 3
Расширение режима : CM (complete main)
Параметр Endianness формата : Big
Режим смешивания : DVD-Video
Продолжительность : 24 м.
Вид битрейта : Постоянный
Битрейт : 448 Кбит/сек
Каналы : 6 каналов
Расположение каналов : Front: L C R, Side: L R, LFE
Частота : 48,0 КГц
Битовая глубина : 16 бит
Метод сжатия : С потерями
Размер потока : 78,3 Мбайт (8%)










pb.wtf



Скачать Секс – за деньги, любовь – бесплатно через торрент http://s55.radikal.ru/i148/1304/57/081b752b8c30.jpg Скачать фильм Секс – за деньги, любовь – бесплатно через торрент бесплантно в хорошем качестве Описание: Тридцаятилетняя Алиса живет со своим мужем и девятилетним сыном в уютной вилле в престижном районе Рима Париоли. Жизнь ее ... 9.8 10 11
Info! Золотая раздача, скачанное не засчитывается.
Торрент: Зарегистрирован [2013-04-03 21:44] · скачан: 88 раз
Статус: √ проверено
Размер: 3.92 GB
Как cкачать? Как скачать Секс – за деньги, любовь – бесплатно через торрент | UTorrent

28-11-2019 20:33  

Отключить всю рекламу на сайте

04-04-2013 04:45 Секс – за деньги, любовь – бесплатно Скачать торрент  

Жанр - комедия. Описание фильма очень комедийное: погиб муж и жена вынуждена заняться проституцией, что бы рассчитаться с долгами.
Обхохочешься.. Впрочем для быдла фильмец наверное пойдет.
А нормальные люди вряд ли будут смотреть.pb.wtf



04-04-2013 10:56 Секс – за деньги, любовь – бесплатно Скачать торрент  

zabriskie писал(а):

Жанр - комедия. Описание фильма очень комедийное: погиб муж и жена вынуждена заняться проституцией, что бы рассчитаться с долгами.
Обхохочешься.. Впрочем для быдла фильмец наверное пойдет.
А нормальные люди вряд ли будут смотреть.

pb.wtf



    Дорогой пользователь! Огромная просьба, поблагодарите релизера, оцените раздачу и оставьте свои комментарий, если Вы скачали Секс – за деньги, любовь – бесплатно через торрент бесплатно! Внесите свою лепту в развитие PiratBit!
    Комментировать посты могут только пользователи прошедшие не сложную регистрацию
    Показать сообщения:    

    Секс – за деньги, любовь – бесплатно через торрент
    Скачать бесплатно Секс – за деньги, любовь – бесплатно
    Секс – за деньги, любовь – бесплатно скачать торрент
    Секс – за деньги, любовь – бесплатно смотреть онлайн
    Cкачать фильм Секс – за деньги, любовь – бесплатно бесплатно
    Секс – за деньги, любовь – бесплатно скачать торрент в хорошем качестве
    Секс – за деньги, любовь – бесплатно смотреть онлайн бесплатно в хорошем качестве


    Вы не можете начинать темы
    Вы не можете отвечать на сообщения
    Вы не можете редактировать свои сообщения
    Вы не можете удалять свои сообщения
    Вы не можете голосовать в опросах
    Вы не можете прикреплять файлы к сообщениям
    Вы можете скачивать файлы