1 сезон

3 сезон

iTunes

1

iTunes

MVO

iTunes

13

1 сезон

RePack

30

Deluxe

pack

Лицензия

ВАЖНО

ИГРА 18+

pack

RePack

MK11

RePack

jed

RePack

fifa19

RePack

RDR2

RePack

NEED FOR SPEED™ PAYBACK

4 сезон

9 сезон

Бесстыжие 9 сезон

Все сериалы

все сериалы на PB.wtf

RePack

FAR CRY 5

Anonymous, добрый вечер, мы катастрофически не успеваем собрать деньги на оплату серверов, помогите нам пожалуйста 5,10,15р., для нас важна любая помощь . В качестве благодарности мы отключим Вам всю рекламу на сайте (укажите свой ник в строку Ваше имя)!

×
  
Magnet ссылка

Дар / El mal ajeno (Оскар Сантос Гомез / Oskar Santos) [2010, драма, DVD9] R5 pb.wtf

Дар через торрент pb.wtf

Размер: 6.23 GB | Добавлен: 8 лет 3 мес. назад | Торрент скачан:38 раз
Скачать  

04-04-2013 14:13 Дар Скачать торрент  


Дар / El mal ajeno
«A veces la realidad esconde algo extraordinario»
Страна: Испания
Студия: Canal+ España, Himenóptero, Mod Producciones, Telecinco Cinema
Жанр: драма
Год выпуска: 2010
Мировая премьера: 12 февраля 2010
Дата выхода DVD: 31 января 2013
Продолжительность: 01:38:14
Перевод: Профессиональный (многоголосый закадровый) [Лицензия]
Cубтитры: нет
Оригинальная аудиодорожка: испанский
Режиссер: Оскар Сантос Гомез / Oskar Santos
В ролях: Эдуардо Норьега, Белен Руэда, Энджи Сепеда, Кристина Плазас, Клара Лаго, Марсел Боррас, Карлос Леаль, Луис Каллехо, Хосе Анхель Эхидо, Чема Руис
Описание: Диего — опытный врач, за долгие годы работы выработал в себе иммунитет к чужим страданиям. Это и приводит его под дуло пистолета… Несколько часов спустя, все, что он помнит, это звук выстрела и странное осознание того, что его ранило что-то, больше чем, просто, пуля. Оклемавшись, он вернулся к работе, но стал замечать, что ранее безнадежные больные, которых он лечил, теперь шли на поправку и с легкостью избавлялись от своих смертельных болячек.
Бонусы: нет

Релиз группы:
Качество: DVD9 R5
Формат: DVD-Video
Видео кодек: MPEG2
Аудио кодек: AC3
Видео: PAL 16:9 (720x576(0.777)) MPEG Video, 25,000 кадр/сек, 8061 Кбит/сек
Аудио #1: Russian (Dolby AC3, 6 ch) 256 Кбит/сек, 48,0 КГц
Аудио #2: Spanish (Dolby AC3, 6 ch) 256 Кбит/сек, 48,0 КГц



Title: Dar.2010.DVD9
Size: 6.23 Gb ( 6 534 336,00 KBytes ) - DVD-9
Enabled regions: 1, 2, 3, 4, 5, 6, 7, 8

VTS_01 :
Play Length: 00:00:10
Video: PAL 16:9 (720x576) VBR, Auto Pan&Scan, Auto Letterboxed

VTS_02 :
Play Length: 00:00:06
Video: PAL 16:9 (720x576) VBR, Auto Pan&Scan, Auto Letterboxed

VTS_03 :
Play Length: 01:38:14
Video: PAL 16:9 (720x576) VBR, Auto Pan&Scan, Auto Letterboxed
Audio:
Not specified (Dolby AC3, 6 ch)
Not specified (Dolby AC3, 6 ch)

VTS_04 :
Play Length: 00:02:29
Video: PAL 16:9 (720x576) VBR, Auto Pan&Scan, Auto Letterboxed
Audio:
Not specified (Dolby AC3, 6 ch)

* Menus Information *

VIDEO_TS Menu
Video:
PAL 16:9 (720x576) VBR
Auto Pan&Scan, Auto Letterboxed
English Language Unit :
Title Menu

VTS_01 Menu
Video:
PAL 16:9 (720x576) VBR
Auto Pan&Scan, Auto Letterboxed
Audio:
Not specified (Dolby AC3, 6 ch)
English Language Unit :
Root Menu

VTS_02 Menu
Video:
PAL 4:3 (720x576) VBR
English Language Unit :
Root Menu

VTS_03 Menu
Video:
PAL 4:3 (720x576) VBR
English Language Unit :
Root Menu

VTS_04 Menu
Video:
PAL 4:3 (720x576) VBR
English Language Unit :
Root Menu
Общее
Полное имя : L:Новинки 2013Dar.2010.DVD9VIDEO_TSVTS_03_1.VOB
Формат : MPEG-PS
Размер файла : 1024 Мбайт
Продолжительность : 16 м.
Режим общего битрейта : Переменный
Общий поток : 8747 Кбит/сек

Видео
Идентификатор : 224 (0xE0)
Формат : MPEG Video
Версия формата : Version 2
Профиль формата : Main@Main
Параметр BVOP формата : Да
Параметр матрицы формата : Выборочная
Параметр GOP формата : M=3, N=15
Продолжительность : 16 м.
Вид битрейта : Переменный
Битрейт : 8061 Кбит/сек
Максимальный битрейт : 9000 Кбит/сек
Ширина : 720 пикселей
Высота : 576 пикселей
Соотношение сторон : 16:9
Частота кадров : 25,000 кадров/сек
Стандарт вещания : PAL
Цветовое пространство : YUV
Субдискретизация насыщенности : 4:2:0
Битовая глубина : 8 бит
Тип развёртки : Чересстрочная
Порядок развёртки : Верхнее поле первое
Метод сжатия : С потерями
Бит/(Пиксели*Кадры) : 0.777
Размер потока : 944 Мбайт (92%)

Аудио #1
Идентификатор : 189 (0xBD)-128 (0x80)
Формат : AC-3
Формат/Информация : Audio Coding 3
Расширение режима : CM (complete main)
Параметр Endianness формата : Big
Режим смешивания : DVD-Video
Продолжительность : 16 м.
Вид битрейта : Постоянный
Битрейт : 256 Кбит/сек
Каналы : 6 каналов
Расположение каналов : Front: L C R, Side: L R, LFE
Частота : 48,0 КГц
Битовая глубина : 16 бит
Метод сжатия : С потерями
Размер потока : 30,0 Мбайт (3%)

Аудио #2
Идентификатор : 189 (0xBD)-129 (0x81)
Формат : AC-3
Формат/Информация : Audio Coding 3
Расширение режима : CM (complete main)
Параметр Endianness формата : Big
Режим смешивания : DVD-Video
Продолжительность : 16 м.
Вид битрейта : Постоянный
Битрейт : 256 Кбит/сек
Каналы : 6 каналов
Расположение каналов : Front: L C R, Side: L R, LFE
Частота : 48,0 КГц
Битовая глубина : 16 бит
Метод сжатия : С потерями
Размер потока : 30,0 Мбайт (3%)










pb.wtf



Скачать Дар через торрент http://s006.radikal.ru/i215/1304/bb/3fef10f08dfb.jpg Скачать фильм Дар через торрент бесплантно в хорошем качестве Описание: Диего — опытный врач, за долгие годы работы выработал в себе иммунитет к чужим страданиям. Это и приводит его под дуло пистолета… ... 9.8 10 5
Info! Золотая раздача, скачанное не засчитывается.
Торрент: Зарегистрирован [2013-04-04 14:13] · скачан: 38 раз
Статус: √ проверено
Размер: 6.23 GB
Как cкачать? Как скачать Дар через торрент | UTorrent

28-11-2019 20:33  

Отключить всю рекламу на сайте

    Дорогой пользователь! Огромная просьба, поблагодарите релизера, оцените раздачу и оставьте свои комментарий, если Вы скачали Дар через торрент бесплатно! Внесите свою лепту в развитие PiratBit!
    Комментировать посты могут только пользователи прошедшие не сложную регистрацию
    Показать сообщения:    

    Дар через торрент
    Скачать бесплатно Дар
    Дар скачать торрент
    Дар смотреть онлайн
    Cкачать фильм Дар бесплатно
    Дар скачать торрент в хорошем качестве
    Дар смотреть онлайн бесплатно в хорошем качестве


    Вы не можете начинать темы
    Вы не можете отвечать на сообщения
    Вы не можете редактировать свои сообщения
    Вы не можете удалять свои сообщения
    Вы не можете голосовать в опросах
    Вы не можете прикреплять файлы к сообщениям
    Вы можете скачивать файлы