1 сезон

3 сезон

iTunes

1

Line

MVO

iTunes

13

1 сезон

RePack

30

Deluxe

pack

Лицензия

ВАЖНО

ИГРА 18+

pack

RePack

MK11

RePack

jed

RePack

fifa19

RePack

RDR2

RePack

NEED FOR SPEED™ PAYBACK

4 сезон

9 сезон

Бесстыжие 9 сезон

Все сериалы

все сериалы на PB.wtf

RePack

FAR CRY 5

Anonymous, доброй ночи, мы катастрофически не успеваем собрать деньги на оплату серверов, помогите нам пожалуйста 5,10,15р., для нас важна любая помощь . В качестве благодарности мы отключим Вам всю рекламу на сайте (укажите свой ник в строку Ваше имя)!

×
  
Magnet ссылка

Гость / The Caller (Мэттью Паркхилл / Matthew Parkhill) [2011, триллер, детектив, DVD5] R5 pb.wtf

Гость через торрент pb.wtf

Размер: 4.02 GB | Добавлен: 8 лет 3 мес. назад | Торрент скачан:54 раза
Скачать  

04-04-2013 17:15 Гость Скачать торрент  


Гость / The Caller
«Some calls are best left unanswered.»
Страна: Великобритания, Пуэрто Рико
Студия: Alcove Entertainment, Head Gear Films, Pimienta, Salt Company International, The
Жанр: триллер, детектив
Год выпуска: 2011
Мировая премьера: 15 апреля 2011
Дата выхода DVD: 15 апреля 2013
Продолжительность: 01:28:07
Перевод: Профессиональный (многоголосый закадровый) [Лицензия]
Cубтитры: нет
Оригинальная аудиодорожка: нет
Режиссер: Мэттью Паркхилл / Matthew Parkhill
В ролях: Стивен Мойер, Рашель Лефевр, Луис Гузман, Эд Куинн, Лорна Рэвер, Мариса Альварес, Брайан Тестер, Корделия Гонзалез, Грэйс Коннелли
Описание: Переживания после развода для Мэри Ки усугубляются чередой странных звонков от таинственного незнакомца. Скоро ей начинает чудиться, что некто проникает в дом без ее ведома. Но самое ужасное происходит, когда Мэри понимает, что этот некто звонит из прошлого…
Бонусы: нет

Релиз группы:
Качество: DVD5 R5
Формат: DVD-Video
Видео кодек: MPEG2
Аудио кодек: AC3
Видео: PAL 16:9 (720x576(0.558)) MPEG Video, 25,000 кадр/сек, 5788 Кбит/сек
Аудио: Russian (Dolby AC3, 6 ch) 448 Кбит/сек, 48,0 КГц



Title: Gost.2011.DVD5
Size: 4.02 Gb ( 4 216 988,00 KBytes ) - DVD-5
Enabled regions: 1, 2, 3, 4, 5, 6, 7, 8

VTS_01 :
Play Length: 00:00:10
Video: PAL 4:3 (720x576) VBR
Audio:
Russian (Dolby AC3, 2 ch)

VTS_02 :
Play Length: 01:28:07
Video: PAL 16:9 (720x576) VBR, Auto Letterboxed
Audio:
Russian (Dolby AC3, 6 ch)

* Menus Information *

VIDEO_TS Menu
Video:
PAL 4:3 (720x576) VBR
English Language Unit :
Title Menu

VTS_01 Menu
Video:
PAL 16:9 (720x576) VBR
Auto Letterboxed
Audio:
Not specified (Dolby AC3, 2 ch)
English Language Unit :
Root Menu

VTS_02 Menu
Video:
PAL 4:3 (720x576) VBR
English Language Unit :
Root Menu
Общее
Полное имя : L:Новинки 2013Gost.2011.DVD5VIDEO_TSVTS_02_2.VOB
Формат : MPEG-PS
Размер файла : 1024 Мбайт
Продолжительность : 22 м.
Режим общего битрейта : Переменный
Общий поток : 6362 Кбит/сек

Видео
Идентификатор : 224 (0xE0)
Формат : MPEG Video
Версия формата : Version 2
Профиль формата : Main@Main
Параметр BVOP формата : Да
Параметр матрицы формата : Выборочная
Параметр GOP формата : M=3, N=15
Продолжительность : 22 м.
Вид битрейта : Переменный
Битрейт : 5788 Кбит/сек
Максимальный битрейт : 9000 Кбит/сек
Ширина : 720 пикселей
Высота : 576 пикселей
Соотношение сторон : 16:9
Частота кадров : 25,000 кадров/сек
Стандарт вещания : PAL
Цветовое пространство : YUV
Субдискретизация насыщенности : 4:2:0
Битовая глубина : 8 бит
Тип развёртки : Чересстрочная
Порядок развёртки : Верхнее поле первое
Метод сжатия : С потерями
Бит/(Пиксели*Кадры) : 0.558
Размер потока : 931 Мбайт (91%)

Аудио
Идентификатор : 189 (0xBD)-128 (0x80)
Формат : AC-3
Формат/Информация : Audio Coding 3
Расширение режима : CM (complete main)
Параметр Endianness формата : Big
Режим смешивания : DVD-Video
Продолжительность : 22 м.
Вид битрейта : Постоянный
Битрейт : 448 Кбит/сек
Каналы : 6 каналов
Расположение каналов : Front: L C R, Side: L R, LFE
Частота : 48,0 КГц
Битовая глубина : 16 бит
Метод сжатия : С потерями
Задержка видео : -328 мс.
Размер потока : 72,1 Мбайт (7%)










pb.wtf



Скачать Гость через торрент http://s018.radikal.ru/i508/1304/88/c0f8be220f1d.jpg Скачать фильм Гость через торрент бесплантно в хорошем качестве Описание: Переживания после развода для Мэри Ки усугубляются чередой странных звонков от таинственного незнакомца. Скоро ей начинает ... 9.9 10 7
Info! Золотая раздача, скачанное не засчитывается.
Торрент: Зарегистрирован [2013-04-04 17:15] · скачан: 54 раз
Статус: √ проверено
Размер: 4.02 GB
Как cкачать? Как скачать Гость через торрент | UTorrent

28-11-2019 20:33  

Отключить всю рекламу на сайте

    Дорогой пользователь! Огромная просьба, поблагодарите релизера, оцените раздачу и оставьте свои комментарий, если Вы скачали Гость через торрент бесплатно! Внесите свою лепту в развитие PiratBit!
    Комментировать посты могут только пользователи прошедшие не сложную регистрацию
    Показать сообщения:    

    Гость через торрент
    Скачать бесплатно Гость
    Гость скачать торрент
    Гость смотреть онлайн
    Cкачать фильм Гость бесплатно
    Гость скачать торрент в хорошем качестве
    Гость смотреть онлайн бесплатно в хорошем качестве


    Вы не можете начинать темы
    Вы не можете отвечать на сообщения
    Вы не можете редактировать свои сообщения
    Вы не можете удалять свои сообщения
    Вы не можете голосовать в опросах
    Вы не можете прикреплять файлы к сообщениям
    Вы можете скачивать файлы