1 сезон

3 сезон

iTunes

1

Line

MVO

iTunes

13

1 сезон

RePack

30

Deluxe

pack

Лицензия

ВАЖНО

ИГРА 18+

pack

RePack

MK11

RePack

jed

RePack

fifa19

RePack

RDR2

RePack

NEED FOR SPEED™ PAYBACK

4 сезон

9 сезон

Бесстыжие 9 сезон

Все сериалы

все сериалы на PB.wtf

RePack

FAR CRY 5

Anonymous, добрый вечер, мы катастрофически не успеваем собрать деньги на оплату серверов, помогите нам пожалуйста 5,10,15р., для нас важна любая помощь . В качестве благодарности мы отключим Вам всю рекламу на сайте (укажите свой ник в строку Ваше имя)!

×
  
Magnet ссылка

Король бойцов / The King of Fighters (Гордон Чан / Gordon Chan) [2010, фантастика, боевик, триллер, DVD9] R5 pb.wtf

Король бойцов через торрент pb.wtf

Размер: 5.12 GB | Добавлен: 8 лет 3 мес. назад | Торрент скачан:46 раз
Скачать  

04-04-2013 18:55 Король бойцов Скачать торрент  


Король бойцов / The King of Fighters
«A tournament of legends.»
Страна: Япония, Тайвань, Германия, Канада, США, Великобритания
Студия: Axis Entertainment, Convergence Entertainment, Double Edge Entertainment, Film & Entertainment VIP Medienfonds 4 GmbH & Co. KG (I), Inferno International, Innoform Media, KOF Film Productions, Micott & Basara K.K., Rising Star, Scion Films Limited
Жанр: фантастика, боевик, триллер
Год выпуска: 2010
Мировая премьера: 4 ноября 2009
Дата выхода DVD: 5 марта 2013
Продолжительность: 01:28:49
Перевод: Профессиональный (многоголосый закадровый) [Лицензия]
Cубтитры: нет
Оригинальная аудиодорожка: нет
Режиссер: Гордон Чан / Gordon Chan
В ролях: Шон Фэрис, Уилл Юн Ли, Дэвид Лейтч, Мэгги Кью, Рэй Парк, Бернисе Жан, Моника Гандертон, Сэм Харгрейв, Франсуаза Йип, Даг Абрахамс
Описание: Человек живет по законам дикой природы, сильный в клочья рвет слабого. Каждый день идет битва за выживание в этом безумном мире улиц и злобы. Здесь нельзя доверять никому кроме себя. И только искусство боя позволит возвыситься и обрести некий статус и стабильность среди хаоса и жестокости. Но для этого придется вступить в смертельную схватку, победителей в которой будет мало, основное число навсегда покинут этот мир, сраженные сильнейшим.
Бонусы: нет

Релиз группы:
Качество: DVD9 R5
Формат: DVD-Video
Видео кодек: MPEG2
Аудио кодек: AC3
Видео: PAL 16:9 (720x576(0.740)) MPEG Video, 25,000 кадр/сек, 7670 Кбит/сек
Аудио: Russian (Dolby AC3, 2 ch) 192 Кбит/сек, 48,0 КГц



Title: Korol.bojcov.2010.DVD9
Size: 5.12 Gb ( 5 370 848,00 KBytes ) - DVD-9
Enabled regions: 1, 2, 3, 4, 5, 6, 7, 8

VTS_01 :
Play Length: 01:28:49
Video: PAL 16:9 (720x576) VBR, Auto Letterboxed
Audio:
Russian (Dolby AC3, 2 ch)

VTS_02 :
Play Length: 00:00:16+00:00:08
Video: PAL 16:9 (720x576) VBR, Auto Letterboxed
Audio:
Russian (Dolby AC3, 2 ch)

* Menus Information *

VIDEO_TS Menu
Video:
PAL 4:3 (720x576) VBR
Auto Pan&Scan, Auto Letterboxed
Russian Language Unit :
Title Menu

VTS_01 Menu
Video:
PAL 16:9 (720x576) VBR
Auto Letterboxed
Audio:
Not specified (Dolby AC3, 2 ch)
Russian Language Unit :
Root Menu

VTS_02 Menu
Video:
PAL 4:3 (720x576) VBR
Auto Pan&Scan, Auto Letterboxed
Language Unit :
Angle menu
Language Unit :
Общее
Полное имя : L:Новинки 2013Korol.bojcov.2010.DVD9VIDEO_TSVTS_01_1.VOB
Формат : MPEG-PS
Размер файла : 1024 Мбайт
Продолжительность : 17 м.
Режим общего битрейта : Переменный
Общий поток : 8022 Кбит/сек

Видео
Идентификатор : 224 (0xE0)
Формат : MPEG Video
Версия формата : Version 2
Профиль формата : Main@Main
Параметр BVOP формата : Да
Параметр матрицы формата : Выборочная
Параметр GOP формата : M=3, N=15
Продолжительность : 17 м.
Вид битрейта : Переменный
Битрейт : 7670 Кбит/сек
Максимальный битрейт : 9000 Кбит/сек
Ширина : 720 пикселей
Высота : 576 пикселей
Соотношение сторон : 16:9
Частота кадров : 25,000 кадров/сек
Стандарт вещания : PAL
Цветовое пространство : YUV
Субдискретизация насыщенности : 4:2:0
Битовая глубина : 8 бит
Тип развёртки : Чересстрочная
Порядок развёртки : Верхнее поле первое
Метод сжатия : С потерями
Бит/(Пиксели*Кадры) : 0.740
Размер потока : 979 Мбайт (96%)

Аудио
Идентификатор : 189 (0xBD)-128 (0x80)
Формат : AC-3
Формат/Информация : Audio Coding 3
Расширение режима : CM (complete main)
Параметр Endianness формата : Big
Режим смешивания : DVD-Video
Продолжительность : 17 м.
Вид битрейта : Постоянный
Битрейт : 192 Кбит/сек
Каналы : 2 канала
Расположение каналов : Front: L R
Частота : 48,0 КГц
Битовая глубина : 16 бит
Метод сжатия : С потерями
Размер потока : 24,5 Мбайт (2%)










pb.wtf



Скачать Король бойцов через торрент http://i058.radikal.ru/1304/57/c2c00d0921b5.jpg Скачать фильм Король бойцов через торрент бесплантно в хорошем качестве Описание: Человек живет по законам дикой природы, сильный в клочья рвет слабого. Каждый день идет битва за выживание в этом безумном мире ... 8.7 10 7
Info! Золотая раздача, скачанное не засчитывается.
Торрент: Зарегистрирован [2013-04-04 18:55] · скачан: 46 раз
Статус: √ проверено
Размер: 5.12 GB
Как cкачать? Как скачать Король бойцов через торрент | UTorrent

28-11-2019 20:33  

Отключить всю рекламу на сайте

    Дорогой пользователь! Огромная просьба, поблагодарите релизера, оцените раздачу и оставьте свои комментарий, если Вы скачали Король бойцов через торрент бесплатно! Внесите свою лепту в развитие PiratBit!
    Комментировать посты могут только пользователи прошедшие не сложную регистрацию
    Показать сообщения:    

    Король бойцов через торрент
    Скачать бесплатно Король бойцов
    Король бойцов скачать торрент
    Король бойцов смотреть онлайн
    Cкачать фильм Король бойцов бесплатно
    Король бойцов скачать торрент в хорошем качестве
    Король бойцов смотреть онлайн бесплатно в хорошем качестве


    Вы не можете начинать темы
    Вы не можете отвечать на сообщения
    Вы не можете редактировать свои сообщения
    Вы не можете удалять свои сообщения
    Вы не можете голосовать в опросах
    Вы не можете прикреплять файлы к сообщениям
    Вы можете скачивать файлы