MEGA NEWS Получи личный уникальный адрес сайта и защити себя от блокировок. Внимание количество ограничено!!!

iTunes

1+1

iTunes

мы

iTunes

1

iTunes

Чернобыль

iTunes

Ральф против интернета

Лицензия

ПШазам

Лицензия

Игра престолов

Лицензия

30
pack

ВАЖНО

!!Акция!!

Alien_RageХит недели

RePack

Resident Evil 21

ИГРА 18+

pack

RePack

Metro:Exodus

!!Акция!!

Alien_Rage

RePack

fifa19

RePack

Assassins Creed: Odyssey

RePack

NEED FOR SPEED™ PAYBACK

3 сезон

9 сезон

Бесстыжие 9 сезон

Все сериалы

все сериалы на PB.wtf

RePack

FAR CRY 5
Ребята, катастрофически не хватает 1900р. для оплаты серверов за АВГУСТ (всвязи с блокировками трафик упал в 3 раза), 1-2р., выручайте.
  

Фантоцци в раю / Fantozzi in paradiso (Нери Паренти) [1993 г., комедия, DVDRip, MVO] pb.wtf

Фантоцци в раю через торрент pb.wtf

Раздают: 1 [ 0 KB/s ]
Размер: 1.37 GB | Добавлен: 6 лет 6 мес. назад | Торрент скачан:186 раз
Скачать  

04-04-2013 19:48 Фантоцци в раю Скачать торрент  

Фантоцци в раю / Fantozzi in paradiso
Год выпуска: 1993
Страна: Италия
Жанр: комедия
Продолжительность: 01:32:31
Перевод: Профессиональный многоголосый, Лицензия




Режиссер: Нери Паренти
Продюссер: Марио Чекки Гори, Витторио Чекки Гори, Бруно Альтиссими
Сценарий: Алессандро Бенчивенни, Леонардо Бенвенути, Пьеро Де Бернарди









В ролях: Паоло Вилладжо, Милена Вукотич, Анна Маццамауро, Жижи Редер, Плинио Фернандо, Джимми иль Феномено, Стефано Антонуччи, Стефания Белуччи, Анджело Бернабуччи, Эмануеле Маньони




Описание: Один за другим умирают бывшие коллеги Фантоцци. После очередных похорон Уго и сам случайно попадает в больницу, где узнает, что жить ему осталось не более двух недель... Пытаясь насладиться последними днями, Фантоции делает, наконец, все то, о чем когда-то мечтал.




Качество: DVDRip
Формат: AVI
Видео кодек: XviD
Аудио кодек: MP3
Видео: 688x512 (1.34:1), 25 fps, XviD MPEG-4 ~1910 kbps avg, 0.22 bit/pixel
Аудио: 48 kHz, MPEG Layer 3, 2 ch, ~192.00 kbps avg
скриншот   скриншот   скриншот   скриншот  

General
Complete name : D:Fantocci.v.raju.1993.XviD.DVDRip.avi
Format : AVI
Format/Info : Audio Video Interleave
File size : 1.37 GiB
Duration : 1h 32mn
Overall bit rate : 2 112 Kbps
Writing application : FairUse Wizard - fairusewizard.com
Writing library : The best and REALLY easy backup tool

Video
ID : 0
Format : MPEG-4 Visual
Format profile : Advanced Simple@L5
Format settings, BVOP : 1
Format settings, QPel : No
Format settings, GMC : No warppoints
Format settings, Matrix : Default (MPEG)
Muxing mode : Packed bitstream
Codec ID : XVID
Codec ID/Hint : XviD
Duration : 1h 32mn
Bit rate : 1 911 Kbps
Width : 688 pixels
Height : 512 pixels
Display aspect ratio : 4:3
Frame rate : 25.000 fps
Color space : YUV
Chroma subsampling : 4:2:0
Bit depth : 8 bits
Scan type : Progressive
Compression mode : Lossy
Bits/(Pixel*Frame) : 0.217
Stream size : 1.23 GiB (90%)
Writing library : XviD 1.2.0.dev47 (UTC 2006-11-01)

Audio
ID : 1
Format : MPEG Audio
Format version : Version 1
Format profile : Layer 3
Mode : Joint stereo
Mode extension : MS Stereo
Codec ID : 55
Codec ID/Hint : MP3
Duration : 1h 32mn
Bit rate mode : Constant
Bit rate : 192 Kbps
Channel(s) : 2 channels
Sampling rate : 48.0 KHz
Compression mode : Lossy
Stream size : 127 MiB (9%)
Alignment : Aligned on interleaves
Interleave, duration : 40 ms (1.00 video frame)
Interleave, preload duration : 504 ms
Writing library : LAME3.97


Фантоцци в раю скачать торрент


pb.wtf



Скачать Фантоцци в раю через торрент http://pic.kartinco.top/images/2/vv83pzpcwc.jpg Скачать фильм Фантоцци в раю через торрент бесплантно в хорошем качестве Описание: Один за другим умирают бывшие коллеги Фантоцци. После очередных похорон Уго и сам случайно попадает в больницу, где узнает, что ... 10 10 13
Info! Золотая раздача, скачанное не засчитывается.
Торрент: Зарегистрирован [2013-04-04 19:48] · скачан: 186 раз
Статус: √ проверено
Размер: 1.37 GB
Как cкачать? Как скачать Фантоцци в раю через торрент | qTorrent


>> Регистрируемся здесь <<






Отзывы и комментарии о схеме читаем и пишем здесь: ---> Отзывы и комментарии о схеме

Новые благодарочки в телеграм довольных пользователей:
скриншот   скриншот   скриншот   скриншот   скриншот

04-04-2013 20:33 Фантоцци в раю Скачать торрент  

закинте все части фонтоци плизpb.wtf



    Дорогой пользователь! Огромная просьба, поблагодарите релизера, оцените раздачу и оставьте свои комментарий, если Вы скачали Фантоцци в раю через торрент бесплатно! Внесите свою лепту в развитие PiratBit!
    Комментировать посты могут только пользователи прошедшие не сложную регистрацию
    Показать сообщения:    

    Фантоцци в раю через торрент
    Скачать бесплатно Фантоцци в раю
    Фантоцци в раю скачать торрент
    Фантоцци в раю смотреть онлайн
    Cкачать фильм Фантоцци в раю бесплатно
    Фантоцци в раю скачать торрент в хорошем качестве
    Фантоцци в раю смотреть онлайн бесплатно в хорошем качестве


    Вы не можете начинать темы
    Вы не можете отвечать на сообщения
    Вы не можете редактировать свои сообщения
    Вы не можете удалять свои сообщения
    Вы не можете голосовать в опросах
    Вы не можете прикреплять файлы к сообщениям
    Вы можете скачивать файлы