Достать ножи: Стеклянная луковица

MVO

Добыча

Дубляж

Уэнсдэй

1 сезон

Тор

Дубляж

13 клиническая

1 сезон

Жестокая ночь

MVO

Одни из нас

1 сезон

Deluxe

pack

Рекомендуем

30

Пиратка

ВАЖНО

ВАЖНО

Ghostwire

Пиратка

jed

RePack

nioh2

RePack

RDR2

RePack

NEED FOR SPEED™ PAYBACK

RePack

скачать торрент

Кинопоиск HD

Острые козырьки 6 сезон

6 сезон

FAR CRY 6

RePack

скачать торрент

Лицензия

скачать торрент

MVO

1

1 сезон

скачать торрент

1 сезон

скачать торрент

Лицензия

  

Неуловимый Люк / Lucky Luke (Джеймс Хат) [2009 г., комедия, приключения, вестерн, HDRip, Дубляж, лицензия]

Неуловимый Люк через торрент pb.wtf

Размер: 1.36 GB | Добавлен: 9 лет 9 мес. назад | Торрент скачан:168 раз
Смотреть онлайн | Скачать | Поддержите нас   

06-04-2013 19:54 Неуловимый Люк Скачать торрент  

Неуловимый Люк / Lucky Luke«Быстрее тени»

Год выпуска: 2009
Страна: Франция, Аргентина
Жанр: комедия, приключения, вестерн,
Продолжительность: 01:43:16
Перевод: Дубляж, Лицензия
Тип релиза: Лицензия

Режиссер: Джеймс Хат
Продюссер: Саид Бен Саид, Ив Мармион, Хосе Луис Алмада
Сценарий: Соня Шиллито, Джеймс Хат, Жан Дюжарден

Бюджет: €27 000 000
Премьера в мире: 21 октября 2009



В ролях: Жан Дюжарден, Микаэль Юн, Сильви Тестю, Даниэль Прево, Александра Лами, Мельвиль Пупо, Жан-Франсуа Балмер, Андре Умански, Габриэль Коррадо, Помпейо Одивер..

Описание: Счастливчик Люк возвращается в свой родной город Дэйзи Таун, где в то время хозяйничают злодеи Пат Покер и Билли Зи Ки.
Там он встретит свою любовь, певицу из местной таверны по имени Белль, а также столкнётся со своими давними врагами Кэлэмити Джэйн и Джесси Джеймсом.

Качество: HDRip
Формат: AVI
Видео кодек: XviD
Аудио кодек: AC3
Видео: XviD; 720x304 (2.35:1); 1560 Kbps; 24 fps; 0.322 bpp
Аудио#1: AC3; 48 kHz; 384 Kbps; CBR; 6 channels Профессиональный (дублированный) [лицензия]
Neulovimyj.Ljuk.2009.D.HDRip.avi
General
Complete name : Neulovimyj.Ljuk.2009.D.HDRip.avi
Format : AVI
Format/Info : Audio Video Interleave
File size : 1.36 GiB
Duration : 1h 43mn
Overall bit rate : 1 890 Kbps
Movie name : Neulovimyj.Ljuk.2009.D.HDRip
Director : ELEKTRO-VDR
Genre : Comedy
Writing application : VirtualDubMod 1.5.4.1 (build 2178/release)
Original source form/Name : Movie
Copyright : ELEKTRI4KA
Video #0
ID : 0
Format : MPEG-4 Visual
Format profile : Advanced [email protected]
Format settings, BVOP : 2
Format settings, QPel : No
Format settings, GMC : No warppoints
Format settings, Matrix : Custom
Codec ID : XVID
Codec ID/Hint : XviD
Duration : 1h 43mn
Bit rate : 1 497 Kbps
Width : 720 pixels
Height : 304 pixels
Display aspect ratio : 2.35:1
Frame rate : 24.000 fps
Color space : YUV
Chroma subsampling : 4:2:0
Bit depth : 8 bits
Scan type : Progressive
Compression mode : Lossy
Bits/(Pixel*Frame) : 0.285
Stream size : 1.08 GiB (79%)
Writing library : XviD 1.2.0.dev47 (UTC 2006-11-01)
Audio #1
ID : 1
Format : AC-3
Format/Info : Audio Coding 3
Mode extension : CM (complete main)
Format settings, Endianness : Big
Codec ID : 2000
Duration : 1h 43mn
Bit rate mode : Constant
Bit rate : 384 Kbps
Channel(s) : 6 channels
Channel positions : Front: L C R, Side: L R, LFE
Sampling rate : 48.0 KHz
Bit depth : 16 bits
Compression mode : Lossy
Delay relative to video : 6ms
Stream size : 283 MiB (20%)
Alignment : Split accross interleaves
Interleave, duration : 42 ms (1.00 video frame)
Interleave, preload duration : 500 ms


Релиз:



Неуловимый Люк скачать торрент





Скачать Неуловимый Люк через торрент http://i.imgur.com/Xz0L25j.jpg Скачать, смотреть онлайн Неуловимый Люк бесплантно в хорошем качестве Описание: Счастливчик Люк возвращается в свой родной город Дэйзи Таун, где в то время хозяйничают злодеи Пат Покер и Билли Зи Ки. Там он ... 9.9 10 8
Info! Золотая раздача, скачанное не засчитывается.
Торрент: Зарегистрирован [2013-04-06 19:54] · скачан: 168 раз
Статус: √ проверено
Размер: 1.36 GB
Как cкачать? Как скачать Неуловимый Люк через торрент | UTorrent

% Раздел Тема Автор DL S | L
Фильмы 2009 [ 1.36 GB ] Неуловимый Люк / Lucky Luke | | HDRip, лицензия SD Скачать
1 | 0
Фильмы (DVD фильмы) [ 5.22 GB ] Неуловимый Люк / Lucky Luke | | Неуловимый Люк / Lucky Luke (Джеймс Хат / James Huth voovaz Скачать
1 | 0

28-11-2019 20:33  


Отключить вcю реклaмy на сайте, в т.ч. и в плеере онлайн просмотра!

    Дорогой пользователь! Огромная просьба, поблагодарите релизера, оцените раздачу и оставьте свои комментарий, если Вы скачали Неуловимый Люк через торрент бесплатно!!
    Комментировать посты могут только пользователи прошедшие не сложную регистрацию
    Показать сообщения:    


    Неуловимый Люк через торрент
    Скачать бесплатно Неуловимый Люк
    Неуловимый Люк скачать торрент
    Неуловимый Люк смотреть онлайн
    Cкачать фильм Неуловимый Люк бесплатно
    Неуловимый Люк скачать торрент в хорошем качестве
    Неуловимый Люк смотреть онлайн бесплатно в хорошем качестве
    Вы не можете начинать темы
    Вы не можете отвечать на сообщения
    Вы не можете редактировать свои сообщения
    Вы не можете удалять свои сообщения
    Вы не можете голосовать в опросах
    Вы не можете прикреплять файлы к сообщениям
    Вы можете скачивать файлы
    Неуловимый Люк / Lucky Luke [2009 г., комедия, приключения, вестерн, HDRip, Дубляж, лицензия] смотреть онлайн, скачать торрент picoco.icu