Всегда рабочее зеркало просто перед .vidak.icu напиши любое слово или цифру, Пример http://dzf.vidak.icu

>

7.4

iTunes

7.4

2 сезон

9.4

1 сезон

1

7.4

2 сезон

7.2

iTunes

6.0

MVO

13

6.1

iTunes

8.3

Пиратка

30

ULTIMATE

pack

9.9

Лицензия

ВАЖНО

ИГРА 18+

pack

7.3

RePack

MK11

7.7

RePack

jed

7.8

RePack

fifa19

8.5

RePack

RDR2

RePack

NEED FOR SPEED™ PAYBACK

1 сезон

9 сезон

Бесстыжие 9 сезон

Все сериалы

все сериалы на PB.wtf

RePack

FAR CRY 5

Anonymous, доброе утро, мы катастрофически не успеваем собрать деньги на оплату серверов, помогите нам пожалуйста 5,10,15р., для нас важна любая помощь . В качестве благодарности мы отключим Вам всю рекламу на сайте (укажите свой ник в строку Ваше имя)!

×
  
Magnet ссылка

Бельфегор - призрак Лувра / Belphegor - le phantome de louvre (Жан-Поль Салом / Jean-Paul Salome) [2001 г., Мистика, DVDRip] AVO (С. Кузнецов) pb.wtf

Бельфегор - призрак Лувра через торрент pb.wtf

Размер: 1.46 GB | Добавлен: 8 лет 9 мес. назад | Торрент скачан:65 раз
Смотреть онлайн Бельфегор - призрак Лувра | Скачать    Ребята, помогите собрать деньги на оплату серверов!!!

08-04-2013 04:56 Бельфегор - призрак Лувра Скачать торрент  

Бельфегор - призрак Лувра / Belphegor - le phantome de louvre
Год выпуска: 2001
Страна: Франция
Жанр: Мистика
Продолжительность: 01:32:41
Перевод: Авторский (одноголосый) С. Кузнецов
Русские субтитры: нет

Режиссер: Жан-Поль Салом / Jean-Paul Salome

В ролях: Софи Марсо (Sophie Marceau), Мишель Серро (Michel Serrault), Фредерик Дьефенталь (Frédéric Diefenthal), Джули Кристи (Julie Christie), Франсуа Левенталь (François Levantal) и др.

Описание: В начале века экспедиция французских египтологов возвращалась на родину. Среди прочих древностей на борт корабля была погружена 3000-летняя мумия, найденная при раскопках. Согласно записям судового врача, экипаж стала косить странная эпидемия. Все по очереди кончали с собой самыми витиеватыми способами. Единственный выживший доставил мумию в Париж, где ее отправили на склад в Лувре...
Качество: DVDRip
Формат: AVI
Видео кодек: XviD
Аудио кодек: AC3
Видео: 720x304 (2.37:1), 25 fps, XviD build 50 ~1793 kbps avg, 0.33 bit/pixel
Аудио: 48 kHz, AC3 Dolby Digital, 3/2 (L,C,R,l,r) + LFE ch, ~448 kbps

D:belphegor - le phantome de louvre.DVDRip 1.45. by dexter lex.avi
General
Complete name : D:belphegor - le phantome de louvre.DVDRip 1.45. by dexter lex.avi
Format : AVI
Format/Info : Audio Video Interleave
File size : 1.46 GiB
Duration : 1h 32mn
Overall bit rate : 2 251 Kbps
Writing application : VirtualDubMod 1.5.10.3 | www.virtualdub-fr.org || (build 2550/release)
Writing library : VirtualDubMod build 2550/release
Video #0
ID : 0
Format : MPEG-4 Visual
Format profile : Advanced Simple@L5
Format settings, BVOP : 1
Format settings, QPel : No
Format settings, GMC : No warppoints
Format settings, Matrix : Custom
Codec ID : XVID
Codec ID/Hint : XviD
Duration : 1h 32mn
Bit rate : 1 793 Kbps
Width : 720 pixels
Height : 304 pixels
Display aspect ratio : 2.37:1
Frame rate : 25.000 fps
Color space : YUV
Chroma subsampling : 4:2:0
Bit depth : 8 bits
Scan type : Progressive
Compression mode : Lossy
Bits/(Pixel*Frame) : 0.328
Stream size : 1.16 GiB (80%)
Writing library : XviD 1.2.1 (UTC 2008-12-04)
Audio #1
ID : 1
Format : AC-3
Format/Info : Audio Coding 3
Mode extension : CM (complete main)
Format settings, Endianness : Big
Codec ID : 2000
Duration : 1h 32mn
Bit rate mode : Constant
Bit rate : 448 Kbps
Channel(s) : 6 channels
Channel positions : Front: L C R, Side: L R, LFE
Sampling rate : 48.0 KHz
Bit depth : 16 bits
Compression mode : Lossy
Stream size : 297 MiB (20%)
Alignment : Split accross interleaves
Interleave, duration : 40 ms (1.00 video frame)
Interleave, preload duration : 500 ms
http://multi-up.com/851920
pb.wtf



Скачать Бельфегор - призрак Лувра через торрент http://i51.fastpic.ru/big/2013/0408/5f/83b887f8d39becf1d9f2f5edc0b9015f.jpg Скачать, смотреть онлайн Бельфегор - призрак Лувра бесплантно в хорошем качестве Описание: В начале века экспедиция французских египтологов возвращалась на родину. Среди прочих древностей на борт корабля была погружена ... 8.9 10 8
Info! Золотая раздача, скачанное не засчитывается.
Торрент: Зарегистрирован [2013-04-08 04:56] · скачан: 65 раз
Статус: √ проверено
Размер: 1.46 GB
Как cкачать? Как скачать Бельфегор - призрак Лувра через торрент | UTorrent

% Раздел Тема Автор DL S | L
Фильмы с авторской озвучкой [ 747 MB ] Бельфегор - призрак Лувра / Belphegor - le phantome de louvre [2001 DVDRip] AVO dexter lex Скачать
1 | 0

28-11-2019 20:33  

Отключить всю рекламу на сайте

08-04-2013 21:43 Бельфегор - призрак Лувра Скачать торрент  

у меня в дубляже есть,надо если кому,маякните :ad:pb.wtf



14-08-2020 13:01 Бельфегор - призрак Лувра Скачать торрент  

Безенчук, В дубляже HD есть?pb.wtf



    Дорогой пользователь! Огромная просьба, поблагодарите релизера, оцените раздачу и оставьте свои комментарий, если Вы скачали Бельфегор - призрак Лувра через торрент бесплатно!
    Комментировать посты могут только пользователи прошедшие не сложную регистрацию
    Показать сообщения:    

    Бельфегор - призрак Лувра через торрент
    Скачать бесплатно Бельфегор - призрак Лувра
    Бельфегор - призрак Лувра скачать торрент
    Бельфегор - призрак Лувра смотреть онлайн
    Cкачать фильм Бельфегор - призрак Лувра бесплатно
    Бельфегор - призрак Лувра скачать торрент в хорошем качестве
    Бельфегор - призрак Лувра смотреть онлайн бесплатно в хорошем качестве


    Вы не можете начинать темы
    Вы не можете отвечать на сообщения
    Вы не можете редактировать свои сообщения
    Вы не можете удалять свои сообщения
    Вы не можете голосовать в опросах
    Вы не можете прикреплять файлы к сообщениям
    Вы можете скачивать файлы