Присоединяйтесь к нам в Telegram!, здесь всегда актуальный адрес сайта, оперативная поддержка и многое другое!!

>

5.9

iTunes

7.4

iTunes

9.4

1 сезон

1

7.4

2 сезон

7.2

iTunes

7.3

1 сезон

13

6.1

iTunes

8.3

GOG

30

ULTIMATE

pack

9.9

Лицензия

ВАЖНО

ИГРА 18+

pack

7.3

RePack

MK11

7.7

RePack

jed

7.8

RePack

fifa19

8.5

RePack

RDR2

RePack

NEED FOR SPEED™ PAYBACK

5 сезон

9 сезон

Бесстыжие 9 сезон

Все сериалы

все сериалы на PB.wtf

RePack

FAR CRY 5

Anonymous, доброе утро, мы катастрофически не успеваем собрать деньги на оплату серверов, помогите нам пожалуйста 5,10,15р., для нас важна любая помощь . В качестве благодарности мы отключим Вам всю рекламу на сайте (укажите свой ник в строку Ваше имя)!

×
  
Magnet ссылка

Подборка клипов / Music Video [2012 г., Trance, WEB-DLRip] pb.wtf

Подборка клипов через торрент pb.wtf

Размер: 4.39 GB | Добавлен: 8 лет 7 мес. назад | Торрент скачан:605 раз
Смотреть онлайн Подборка клипов | Скачать    Ребята, помогите собрать деньги на оплату серверов!!!

08-04-2013 13:50 Подборка клипов Скачать торрент  

Подборка клипов / Music Video
Год выпуска: 2012
Страна: All World
Жанр: Trance
Продолжительность: 03:17:48
1.Alex M.O.R.P.H. feat. Sylvia Tosun - An Angel's Love (Official Music Video)
2.Aly & Fila meets Roger Shah feat Adrina Thorpe - Perfect Love (Official Music Video)
3.Aly & Fila vs Jwaydan - Coming Home (Official Music Video)
4.Andy Moor feat. Sue McLaren - Trespass (Official Music Video)
5.Antillas & Blinders feat. Jenson Vaughan - Top Of The World (Official Music Video)
6.Antillas feat. Fiora - Damaged (Official Music Video)
7.Armin van Buuren - Orbion (Official Music Video)
8.Armin van Buuren feat. Ana Criado - I'll Listen (Official Music Video)
9.Armin van Buuren feat. Laura V - Drowning (Official Music Video)
10.Cerf, Mitiska & Jaren and Chris Jones - Starting Right Now (Official Music Video)
11.Cerf, Mitiska & Jaren with Rank 1 - Witness (Official Acoustic Video)
12.Cerf, Mitiska & Jaren with Rank 1 - Witness (Official Music Video)
13.Chicane & Ferry Corsten - One Thousand Suns (Original Mix) (Official Music Video)
14.Chicane & Ferry Corsten - One Thousand Suns (Soundprank Remix) (Official Music Video)
15.Dabruck & Klein feat. Anna McDonald - All About You (Official Music Video)
16.Dabruck & Klein feat. Ollie James - I Found Love (Official Music Video)
17.Daleri - En Route (Official Music Video)
18.Dash Berlin feat. Chris Madin - Silence In Your Heart (Official Music Video)
19.Dash Berlin feat. Emma Hewitt - Like Spinning Plates (Official Music Video)
20.Dash Berlin feat. Jonathan Mendelsohn - World Falls Apart (Official Music Video)
21.Dash Berlin ft. Kate Walsh - When You Were Around (Official Music Video)
22.Dash Berlin ft. Sarah Howells - Go It Alone (Official Music Video)
23.Dash Berlin with Shogun - Callisto (Official Music Video)
24.Emma Hewitt - Colours (Armin van Buuren Remix) (Official Music Video)
25.Emma Hewitt - Colours (Official Music Video)
26.Emma Hewitt - Foolish Boy (Official Music Video)
27.Emma Hewitt - Miss You Paradise (Original Mix) [Official Music Video]
28.Emma Hewitt - Miss You Paradise (Shogun Remix) (Official Music Video)
29.Emma Hewitt - Rewind (Mikkas Remix)
30.Gabriel & Dresden feat. Betsie Larkin - Play It Back (Official Music Video)
31.Giuseppe Ottaviani feat. Amba Shepherd - Lost For Words (Official Music Video)
32.Hardwell - Cobra (Official Music Video)
33.Hardwell feat. Mitch Crown - Call Me A Spaceman (Official Music Video)
34.Markus Schulz - Rain (Official Music Video)
35.Markus Schulz feat. Adina Butar - Caught (Official Music Video)
36.Markus Schulz feat. Ana Diaz - Nothing Without Me (Official Music Video)
37.Markus Schulz feat. Seri - Love Rain Down (Official Music Video)
38.Matt Darey & Stan Kolev feat. Aelyn - Follow You (Official Music Video)
39.Matt Darey feat. Leah - Hold Your Breath (KhoMha Remix) (Official Music Video)
40.Paul van Dyk feat. Adam Young - Eternity (Official Music Video)
41.Paul van Dyk feat. Plumb - I Don't Deserve You (Official Music Video)
42.Roger Shah & Sian Kosheen - Shine (Official Music Video)
43.Roger Shah feat. Inger Hansen - Dance With Me (Club Mix) [Official Music Video]
44.Roger Shah feat. Inger Hansen - Dance With Me (Official Music Video)
45.Sunlounger & Zara Taylor - Try To Be Love (Official Music Video)
46.Susana & Max Graham - Down To Nothing (Official Music Video)
47.Susana & Rex Mundi - All Time Low (Official Music Video)
48.tyDi feat. Christina Novelli - Fire & Load (Official Music Video)
49.W&W - Moscow (Official Music Video)
50.W&W feat. Bree - Nowhere To Go (Official Music Video)
Качество: WEB-DLRip
Формат: MP4
Видео кодек: H.264
Аудио кодек: AAC
Видео: 1280x720,1920x1080; 23,976 кадра/сек - 30,000 кадров/сек; ~ 4000 Кбит/сек
Аудио#1: AAC, 2.0, ~192 Кбит/сек, 44,1 КГц"Скриншоты"
скриншот   скриншот   скриншот   скриншот  
скриншот   скриншот   скриншот   скриншот  

Код:

Общее
Полное имя : E:Armada Music (2012)Alex M.O.R.P.H. feat. Sylvia Tosun - An Angel's Love (Official Music Video).mp4
Формат : MPEG-4
Профиль формата : Base Media / Version 2
Идентификатор кодека : mp42
Размер файла : 65,1 Мбайт
Продолжительность : 3 м. 54 с.
Режим общего битрейта : Переменный
Общий поток : 2331 Кбит/сек
Дата кодирования : UTC 2011-11-06 11:10:19
Дата пометки : UTC 2011-11-06 11:10:19
gsst : 0
gstd : 234381
gssd : B2EE8CF47MH1357415975993946
gshh : r4---sn-hxb54vo-304e.c.youtube.com

Видео
Идентификатор : 1
Формат : AVC
Формат/Информация : Advanced Video Codec
Профиль формата : High@L3.1
Параметр CABAC формата : Да
Параметр ReFrames формата : 1 кадр
Идентификатор кодека : avc1
Идентификатор кодека/Информация : Advanced Video Coding
Продолжительность : 3 м. 54 с.
Битрейт : 2176 Кбит/сек
Максимальный битрейт : 5416 Кбит/сек
Ширина : 1280 пикселей
Высота : 720 пикселей
Соотношение сторон : 16:9
Режим частоты кадров : Постоянный
Частота кадров : 25,000 кадров/сек
Цветовое пространство : YUV
Субдискретизация насыщенности : 4:2:0
Битовая глубина : 8 бит
Тип развёртки : Прогрессивная
Бит/(Пиксели*Кадры) : 0.094
Размер потока : 60,8 Мбайт (93%)
Дата пометки : UTC 2011-11-06 11:10:19

Аудио
Идентификатор : 2
Формат : AAC
Формат/Информация : Advanced Audio Codec
Профиль формата : LC
Идентификатор кодека : 40
Продолжительность : 3 м. 54 с.
Вид битрейта : Переменный
Битрейт : 152 Кбит/сек
Максимальный битрейт : 224 Кбит/сек
Каналы : 2 канала
Расположение каналов : Front: L R
Частота : 44,1 КГц
Метод сжатия : С потерями
Размер потока : 4,25 Мбайт (7%)
Заголовок : IsoMedia File Produced by Google, 5-11-2011
Дата кодирования : UTC 2011-11-06 11:10:19
Дата пометки : UTC 2011-11-06 11:10:19

Общее
Полное имя : E:Armada Music (2012)Aly & Fila meets Roger Shah feat Adrina Thorpe - Perfect Love (Official Music Video).mp4
Формат : MPEG-4
Профиль формата : Base Media / Version 2
Идентификатор кодека : mp42
Размер файла : 110 Мбайт
Продолжительность : 4 м. 6 с.
Режим общего битрейта : Переменный
Общий поток : 3746 Кбит/сек
Дата кодирования : UTC 2012-10-18 09:50:56
Дата пометки : UTC 2012-10-18 09:50:56
gsst : 0
gstd : 246433
gssd : B2EE8CF4AMH1357415854918985
gshh : r7---sn-hxb54vo-304e.c.youtube.com

Видео
Идентификатор : 1
Формат : AVC
Формат/Информация : Advanced Video Codec
Профиль формата : High@L4.0
Параметр CABAC формата : Да
Параметр ReFrames формата : 1 кадр
Идентификатор кодека : avc1
Идентификатор кодека/Информация : Advanced Video Coding
Продолжительность : 4 м. 6 с.
Битрейт : 3551 Кбит/сек
Максимальный битрейт : 8350 Кбит/сек
Ширина : 1920 пикселей
Высота : 1080 пикселей
Соотношение сторон : 16:9
Режим частоты кадров : Постоянный
Частота кадров : 23,976 кадра/сек
Цветовое пространство : YUV
Субдискретизация насыщенности : 4:2:0
Битовая глубина : 8 бит
Тип развёртки : Прогрессивная
Бит/(Пиксели*Кадры) : 0.071
Размер потока : 104 Мбайт (95%)
Дата пометки : UTC 2012-10-18 09:50:56

Аудио
Идентификатор : 2
Формат : AAC
Формат/Информация : Advanced Audio Codec
Профиль формата : LC
Идентификатор кодека : 40
Продолжительность : 4 м. 6 с.
Вид битрейта : Переменный
Битрейт : 192 Кбит/сек
Максимальный битрейт : 202 Кбит/сек
Каналы : 2 канала
Расположение каналов : Front: L R
Частота : 44,1 КГц
Метод сжатия : С потерями
Размер потока : 5,64 Мбайт (5%)
Заголовок : IsoMedia File Produced by Google, 5-11-2011
Дата кодирования : UTC 2012-10-18 09:50:56
Дата пометки : UTC 2012-10-18 09:50:56

Общее
Полное имя : E:Armada Music (2012)Aly & Fila vs Jwaydan - Coming Home (Official Music Video).mp4
Формат : MPEG-4
Профиль формата : Base Media / Version 2
Идентификатор кодека : mp42
Размер файла : 128 Мбайт
Продолжительность : 5 м. 23 с.
Режим общего битрейта : Переменный
Общий поток : 3314 Кбит/сек
Дата кодирования : UTC 2012-06-24 15:42:29
Дата пометки : UTC 2012-06-24 15:42:29
gsst : 0
gstd : 323383
gssd : B2EE8CF45MH1357416924070080
gshh : r2---sn-hxb54vo-304e.c.youtube.com

Видео
Идентификатор : 1
Формат : AVC
Формат/Информация : Advanced Video Codec
Профиль формата : High@L4.0
Параметр CABAC формата : Да
Параметр ReFrames формата : 1 кадр
Идентификатор кодека : avc1
Идентификатор кодека/Информация : Advanced Video Coding
Продолжительность : 5 м. 23 с.
Битрейт : 3160 Кбит/сек
Максимальный битрейт : 6949 Кбит/сек
Ширина : 1920 пикселей
Высота : 1080 пикселей
Соотношение сторон : 16:9
Режим частоты кадров : Постоянный
Частота кадров : 23,976 кадра/сек
Цветовое пространство : YUV
Субдискретизация насыщенности : 4:2:0
Битовая глубина : 8 бит
Тип развёртки : Прогрессивная
Бит/(Пиксели*Кадры) : 0.064
Размер потока : 122 Мбайт (95%)
Дата пометки : UTC 2012-06-24 15:42:30

Аудио
Идентификатор : 2
Формат : AAC
Формат/Информация : Advanced Audio Codec
Профиль формата : LC
Идентификатор кодека : 40
Продолжительность : 5 м. 23 с.
Вид битрейта : Переменный
Битрейт : 152 Кбит/сек
Максимальный битрейт : 206 Кбит/сек
Каналы : 2 канала
Расположение каналов : Front: L R
Частота : 44,1 КГц
Метод сжатия : С потерями
Размер потока : 5,86 Мбайт (5%)
Заголовок : IsoMedia File Produced by Google, 5-11-2011
Дата кодирования : UTC 2012-06-24 15:42:29
Дата пометки : UTC 2012-06-24 15:42:30

Общее
Полное имя : E:Armada Music (2012)Andy Moor feat. Sue McLaren - Trespass (Official Music Video).mp4
Формат : MPEG-4
Профиль формата : Base Media / Version 2
Идентификатор кодека : mp42
Размер файла : 100 Мбайт
Продолжительность : 4 м. 42 с.
Режим общего битрейта : Переменный
Общий поток : 2977 Кбит/сек
Дата кодирования : UTC 2012-10-14 14:31:24
Дата пометки : UTC 2012-10-14 14:31:24
gsst : 0
gstd : 282306
gssd : B2EE8CF4BHM1357415276170165
gshh : r8---sn-hxb54vo-304e.c.youtube.com

Видео
Идентификатор : 1
Формат : AVC
Формат/Информация : Advanced Video Codec
Профиль формата : High@L4.0
Параметр CABAC формата : Да
Параметр ReFrames формата : 1 кадр
Идентификатор кодека : avc1
Идентификатор кодека/Информация : Advanced Video Coding
Продолжительность : 4 м. 42 с.
Битрейт : 2783 Кбит/сек
Максимальный битрейт : 10,7 Мбит/сек
Ширина : 1920 пикселей
Высота : 1080 пикселей
Соотношение сторон : 16:9
Режим частоты кадров : Постоянный
Частота кадров : 25,000 кадров/сек
Цветовое пространство : YUV
Субдискретизация насыщенности : 4:2:0
Битовая глубина : 8 бит
Тип развёртки : Прогрессивная
Бит/(Пиксели*Кадры) : 0.054
Размер потока : 93,6 Мбайт (93%)
Дата пометки : UTC 2012-10-14 14:31:25

Аудио
Идентификатор : 2
Формат : AAC
Формат/Информация : Advanced Audio Codec
Профиль формата : LC
Идентификатор кодека : 40
Продолжительность : 4 м. 42 с.
Вид битрейта : Переменный
Битрейт : 192 Кбит/сек
Максимальный битрейт : 202 Кбит/сек
Каналы : 2 канала
Расположение каналов : Front: L R
Частота : 44,1 КГц
Метод сжатия : С потерями
Размер потока : 6,46 Мбайт (6%)
Заголовок : IsoMedia File Produced by Google, 5-11-2011
Дата кодирования : UTC 2012-10-14 14:31:25
Дата пометки : UTC 2012-10-14 14:31:25

Общее
Полное имя : E:Armada Music (2012)Antillas & Blinders feat. Jenson Vaughan - Top Of The World (Official Music Video).mp4
Формат : MPEG-4
Профиль формата : Base Media / Version 2
Идентификатор кодека : mp42
Размер файла : 93,2 Мбайт
Продолжительность : 3 м. 44 с.
Режим общего битрейта : Переменный
Общий поток : 3480 Кбит/сек
Дата кодирования : UTC 2012-08-12 10:38:46
Дата пометки : UTC 2012-08-12 10:38:46
gsst : 0
gstd : 224861
gssd : B2EE8CF49MH1357416621512746
gshh : r6---sn-hxb54vo-304e.c.youtube.com

Видео
Идентификатор : 1
Формат : AVC
Формат/Информация : Advanced Video Codec
Профиль формата : High@L4.0
Параметр CABAC формата : Да
Параметр ReFrames формата : 1 кадр
Идентификатор кодека : avc1
Идентификатор кодека/Информация : Advanced Video Coding
Продолжительность : 3 м. 44 с.
Битрейт : 3285 Кбит/сек
Максимальный битрейт : 8495 Кбит/сек
Ширина : 1920 пикселей
Высота : 1080 пикселей
Соотношение сторон : 16:9
Режим частоты кадров : Постоянный
Частота кадров : 25,000 кадров/сек
Цветовое пространство : YUV
Субдискретизация насыщенности : 4:2:0
Битовая глубина : 8 бит
Тип развёртки : Прогрессивная
Бит/(Пиксели*Кадры) : 0.063
Размер потока : 88,0 Мбайт (94%)
Дата пометки : UTC 2012-08-12 10:38:47

Аудио
Идентификатор : 2
Формат : AAC
Формат/Информация : Advanced Audio Codec
Профиль формата : LC
Идентификатор кодека : 40
Продолжительность : 3 м. 44 с.
Вид битрейта : Переменный
Битрейт : 192 Кбит/сек
Максимальный битрейт : 202 Кбит/сек
Каналы : 2 канала
Расположение каналов : Front: L R
Частота : 44,1 КГц
Метод сжатия : С потерями
Размер потока : 5,14 Мбайт (6%)
Заголовок : IsoMedia File Produced by Google, 5-11-2011
Дата кодирования : UTC 2012-08-12 10:38:47
Дата пометки : UTC 2012-08-12 10:38:47

Общее
Полное имя : E:Armada Music (2012)Antillas feat. Fiora - Damaged (Official Music Video).mp4
Формат : MPEG-4
Профиль формата : Base Media / Version 2
Идентификатор кодека : mp42
Размер файла : 48,8 Мбайт
Продолжительность : 3 м. 58 с.
Режим общего битрейта : Переменный
Общий поток : 1718 Кбит/сек
Дата кодирования : UTC 2012-02-13 08:36:40
Дата пометки : UTC 2012-02-13 08:36:40
gsst : 0
gstd : 238213
gssd : B2EE8CF47MH1357417579002937
gshh : r4---sn-hxb54vo-304e.c.youtube.com

Видео
Идентификатор : 1
Формат : AVC
Формат/Информация : Advanced Video Codec
Профиль формата : High@L3.1
Параметр CABAC формата : Да
Параметр ReFrames формата : 1 кадр
Идентификатор кодека : avc1
Идентификатор кодека/Информация : Advanced Video Coding
Продолжительность : 3 м. 58 с.
Битрейт : 1564 Кбит/сек
Максимальный битрейт : 4568 Кбит/сек
Ширина : 1280 пикселей
Высота : 720 пикселей
Соотношение сторон : 16:9
Режим частоты кадров : Постоянный
Частота кадров : 25,000 кадров/сек
Цветовое пространство : YUV
Субдискретизация насыщенности : 4:2:0
Битовая глубина : 8 бит
Тип развёртки : Прогрессивная
Бит/(Пиксели*Кадры) : 0.068
Размер потока : 44,4 Мбайт (91%)
Дата пометки : UTC 2012-02-13 08:36:41

Аудио
Идентификатор : 2
Формат : AAC
Формат/Информация : Advanced Audio Codec
Профиль формата : LC
Идентификатор кодека : 40
Продолжительность : 3 м. 58 с.
Вид битрейта : Переменный
Битрейт : 152 Кбит/сек
Максимальный битрейт : 255 Кбит/сек
Каналы : 2 канала
Расположение каналов : Front: L R
Частота : 44,1 КГц
Метод сжатия : С потерями
Размер потока : 4,31 Мбайт (9%)
Заголовок : IsoMedia File Produced by Google, 5-11-2011
Дата кодирования : UTC 2012-02-13 08:36:40
Дата пометки : UTC 2012-02-13 08:36:41

Общее
Полное имя : E:Armada Music (2012)Armin van Buuren - Orbion (Official Music Video).mp4
Формат : MPEG-4
Профиль формата : Base Media / Version 2
Идентификатор кодека : mp42
Размер файла : 111 Мбайт
Продолжительность : 3 м. 12 с.
Режим общего битрейта : Переменный
Общий поток : 4853 Кбит/сек
Дата кодирования : UTC 2012-02-09 10:34:00
Дата пометки : UTC 2012-02-09 10:34:00
gsst : 0
gstd : 192538
gssd : B2EE8CF4BMM1357417639178990
gshh : r8---sn-hxb54vo-304e.c.youtube.com

Видео
Идентификатор : 1
Формат : AVC
Формат/Информация : Advanced Video Codec
Профиль формата : High@L4.0
Параметр CABAC формата : Да
Параметр ReFrames формата : 1 кадр
Идентификатор кодека : avc1
Идентификатор кодека/Информация : Advanced Video Coding
Продолжительность : 3 м. 12 с.
Битрейт : 4699 Кбит/сек
Максимальный битрейт : 11,0 Мбит/сек
Ширина : 1920 пикселей
Высота : 1080 пикселей
Соотношение сторон : 16:9
Режим частоты кадров : Постоянный
Частота кадров : 25,000 кадров/сек
Цветовое пространство : YUV
Субдискретизация насыщенности : 4:2:0
Битовая глубина : 8 бит
Тип развёртки : Прогрессивная
Бит/(Пиксели*Кадры) : 0.091
Размер потока : 108 Мбайт (97%)
Дата пометки : UTC 2012-02-09 10:34:01

Аудио
Идентификатор : 2
Формат : AAC
Формат/Информация : Advanced Audio Codec
Профиль формата : LC
Идентификатор кодека : 40
Продолжительность : 3 м. 12 с.
Вид битрейта : Переменный
Битрейт : 152 Кбит/сек
Максимальный битрейт : 209 Кбит/сек
Каналы : 2 канала
Расположение каналов : Front: L R
Частота : 44,1 КГц
Метод сжатия : С потерями
Размер потока : 3,49 Мбайт (3%)
Заголовок : IsoMedia File Produced by Google, 5-11-2011
Дата кодирования : UTC 2012-02-09 10:34:01
Дата пометки : UTC 2012-02-09 10:34:01

Общее
Полное имя : E:Armada Music (2012)Armin van Buuren feat. Ana Criado - I'll Listen (Official Music Video).mp4
Формат : MPEG-4
Профиль формата : Base Media / Version 2
Идентификатор кодека : mp42
Размер файла : 119 Мбайт
Продолжительность : 4 м. 7 с.
Режим общего битрейта : Переменный
Общий поток : 4024 Кбит/сек
Дата кодирования : UTC 2012-09-20 12:45:19
Дата пометки : UTC 2012-09-20 12:45:19
gsst : 0
gstd : 247616
gssd : B2EE8CF49HH1357416098634106
gshh : r6---sn-hxb54vo-304e.c.youtube.com

Видео
Идентификатор : 1
Формат : AVC
Формат/Информация : Advanced Video Codec
Профиль формата : High@L4.0
Параметр CABAC формата : Да
Параметр ReFrames формата : 1 кадр
Идентификатор кодека : avc1
Идентификатор кодека/Информация : Advanced Video Coding
Продолжительность : 4 м. 7 с.
Битрейт : 3829 Кбит/сек
Максимальный битрейт : 11,4 Мбит/сек
Ширина : 1920 пикселей
Высота : 1080 пикселей
Соотношение сторон : 16:9
Режим частоты кадров : Постоянный
Частота кадров : 25,000 кадров/сек
Цветовое пространство : YUV
Субдискретизация насыщенности : 4:2:0
Битовая глубина : 8 бит
Тип развёртки : Прогрессивная
Бит/(Пиксели*Кадры) : 0.074
Размер потока : 113 Мбайт (95%)
Дата пометки : UTC 2012-09-20 12:45:19

Аудио
Идентификатор : 2
Формат : AAC
Формат/Информация : Advanced Audio Codec
Профиль формата : LC
Идентификатор кодека : 40
Продолжительность : 4 м. 7 с.
Вид битрейта : Переменный
Битрейт : 192 Кбит/сек
Максимальный битрейт : 203 Кбит/сек
Каналы : 2 канала
Расположение каналов : Front: L R
Частота : 44,1 КГц
Метод сжатия : С потерями
Размер потока : 5,66 Мбайт (5%)
Заголовок : IsoMedia File Produced by Google, 5-11-2011
Дата кодирования : UTC 2012-09-20 12:45:19
Дата пометки : UTC 2012-09-20 12:45:19

Общее
Полное имя : E:Armada Music (2012)Armin van Buuren feat. Laura V - Drowning (Official Music Video) [Full HD].mp4
Формат : MPEG-4
Профиль формата : Base Media / Version 2
Идентификатор кодека : mp42
Размер файла : 63,1 Мбайт
Продолжительность : 2 м. 55 с.
Режим общего битрейта : Переменный
Общий поток : 3010 Кбит/сек
Дата кодирования : UTC 2011-03-29 15:09:41
Дата пометки : UTC 2011-03-29 15:09:41
gsst : 0
gstd : 175840
gssd : BADC23AA8MH1357416333117260
gshh : r8---sn-n8v7lnee.c.youtube.com

Видео
Идентификатор : 1
Формат : AVC
Формат/Информация : Advanced Video Codec
Профиль формата : High@L4.0
Параметр CABAC формата : Да
Параметр ReFrames формата : 1 кадр
Идентификатор кодека : avc1
Идентификатор кодека/Информация : Advanced Video Coding
Продолжительность : 2 м. 55 с.
Битрейт : 2878 Кбит/сек
Максимальный битрейт : 10,6 Мбит/сек
Ширина : 1920 пикселей
Высота : 1080 пикселей
Соотношение сторон : 16:9
Режим частоты кадров : Постоянный
Частота кадров : 25,000 кадров/сек
Цветовое пространство : YUV
Субдискретизация насыщенности : 4:2:0
Битовая глубина : 8 бит
Тип развёртки : Прогрессивная
Бит/(Пиксели*Кадры) : 0.056
Размер потока : 60,3 Мбайт (96%)
Дата пометки : UTC 2011-03-29 15:09:43

Аудио
Идентификатор : 2
Формат : AAC
Формат/Информация : Advanced Audio Codec
Профиль формата : LC
Идентификатор кодека : 40
Продолжительность : 2 м. 55 с.
Вид битрейта : Переменный
Битрейт : 128 Кбит/сек
Максимальный битрейт : 203 Кбит/сек
Каналы : 2 канала
Расположение каналов : Front: L R
Частота : 44,1 КГц
Метод сжатия : С потерями
Размер потока : 2,68 Мбайт (4%)
Заголовок : (C) 2007 Google Inc. v08.13.2007.
Дата кодирования : UTC 2011-03-29 15:09:42
Дата пометки : UTC 2011-03-29 15:09:43

Общее
Полное имя : E:Armada Music (2012)Cerf, Mitiska & Jaren and Chris Jones - Starting Right Now (Official Music Video).mp4
Формат : MPEG-4
Профиль формата : Base Media / Version 2
Идентификатор кодека : mp42
Размер файла : 91,3 Мбайт
Продолжительность : 3 м. 33 с.
Режим общего битрейта : Переменный
Общий поток : 3585 Кбит/сек
Дата кодирования : UTC 2012-09-03 16:01:16
Дата пометки : UTC 2012-09-03 16:01:16
gsst : 0
gstd : 213855
gssd : B2EE8CF48HH1357416277913825
gshh : r5---sn-hxb54vo-304e.c.youtube.com

Видео
Идентификатор : 1
Формат : AVC
Формат/Информация : Advanced Video Codec
Профиль формата : High@L4.0
Параметр CABAC формата : Да
Параметр ReFrames формата : 1 кадр
Идентификатор кодека : avc1
Идентификатор кодека/Информация : Advanced Video Coding
Продолжительность : 3 м. 33 с.
Битрейт : 3390 Кбит/сек
Максимальный битрейт : 11,4 Мбит/сек
Ширина : 1920 пикселей
Высота : 1080 пикселей
Соотношение сторон : 16:9
Режим частоты кадров : Постоянный
Частота кадров : 25,000 кадров/сек
Цветовое пространство : YUV
Субдискретизация насыщенности : 4:2:0
Битовая глубина : 8 бит
Тип развёртки : Прогрессивная
Бит/(Пиксели*Кадры) : 0.065
Размер потока : 86,4 Мбайт (95%)
Дата пометки : UTC 2012-09-03 16:01:16

Аудио
Идентификатор : 2
Формат : AAC
Формат/Информация : Advanced Audio Codec
Профиль формата : LC
Идентификатор кодека : 40
Продолжительность : 3 м. 33 с.
Вид битрейта : Переменный
Битрейт : 192 Кбит/сек
Максимальный битрейт : 202 Кбит/сек
Каналы : 2 канала
Расположение каналов : Front: L R
Частота : 44,1 КГц
Метод сжатия : С потерями
Размер потока : 4,89 Мбайт (5%)
Заголовок : IsoMedia File Produced by Google, 5-11-2011
Дата кодирования : UTC 2012-09-03 16:01:16
Дата пометки : UTC 2012-09-03 16:01:16

Общее
Полное имя : E:Armada Music (2012)Cerf, Mitiska & Jaren with Rank 1 - Witness (Official Acoustic Video).mp4
Формат : MPEG-4
Профиль формата : Base Media / Version 2
Идентификатор кодека : mp42
Размер файла : 39,3 Мбайт
Продолжительность : 3 м. 33 с.
Режим общего битрейта : Переменный
Общий поток : 1545 Кбит/сек
Дата кодирования : UTC 2012-04-09 09:22:55
Дата пометки : UTC 2012-04-09 09:22:55
gsst : 0
gstd : 213553
gssd : B2EE8CF49MH1357417482153114
gshh : r6---sn-hxb54vo-304e.c.youtube.com

Видео
Идентификатор : 1
Формат : AVC
Формат/Информация : Advanced Video Codec
Профиль формата : High@L3.1
Параметр CABAC формата : Да
Параметр ReFrames формата : 1 кадр
Идентификатор кодека : avc1
Идентификатор кодека/Информация : Advanced Video Coding
Продолжительность : 3 м. 33 с.
Битрейт : 1391 Кбит/сек
Максимальный битрейт : 2812 Кбит/сек
Ширина : 1280 пикселей
Высота : 720 пикселей
Соотношение сторон : 16:9
Режим частоты кадров : Постоянный
Частота кадров : 25,000 кадров/сек
Цветовое пространство : YUV
Субдискретизация насыщенности : 4:2:0
Битовая глубина : 8 бит
Тип развёртки : Прогрессивная
Бит/(Пиксели*Кадры) : 0.060
Размер потока : 35,4 Мбайт (90%)
Дата пометки : UTC 2012-04-09 09:22:55

Аудио
Идентификатор : 2
Формат : AAC
Формат/Информация : Advanced Audio Codec
Профиль формата : LC
Идентификатор кодека : 40
Продолжительность : 3 м. 33 с.
Вид битрейта : Переменный
Битрейт : 152 Кбит/сек
Максимальный битрейт : 218 Кбит/сек
Каналы : 2 канала
Расположение каналов : Front: L R
Частота : 44,1 КГц
Метод сжатия : С потерями
Размер потока : 3,87 Мбайт (10%)
Заголовок : IsoMedia File Produced by Google, 5-11-2011
Дата кодирования : UTC 2012-04-09 09:22:55
Дата пометки : UTC 2012-04-09 09:22:55

Общее
Полное имя : E:Armada Music (2012)Cerf, Mitiska & Jaren with Rank 1 - Witness (Official Music Video).mp4
Формат : MPEG-4
Профиль формата : Base Media / Version 2
Идентификатор кодека : mp42
Размер файла : 97,1 Мбайт
Продолжительность : 3 м. 54 с.
Режим общего битрейта : Переменный
Общий поток : 3473 Кбит/сек
Дата кодирования : UTC 2012-04-23 10:49:39
Дата пометки : UTC 2012-04-23 10:49:39
gsst : 0
gstd : 234613
gssd : B2EE8CF4AHH1357417388858638
gshh : r7---sn-hxb54vo-304e.c.youtube.com

Видео
Идентификатор : 1
Формат : AVC
Формат/Информация : Advanced Video Codec
Профиль формата : High@L4.0
Параметр CABAC формата : Да
Параметр ReFrames формата : 1 кадр
Идентификатор кодека : avc1
Идентификатор кодека/Информация : Advanced Video Coding
Продолжительность : 3 м. 54 с.
Битрейт : 3319 Кбит/сек
Максимальный битрейт : 9405 Кбит/сек
Ширина : 1920 пикселей
Высота : 1080 пикселей
Соотношение сторон : 16:9
Режим частоты кадров : Постоянный
Частота кадров : 25,000 кадров/сек
Цветовое пространство : YUV
Субдискретизация насыщенности : 4:2:0
Битовая глубина : 8 бит
Тип развёртки : Прогрессивная
Бит/(Пиксели*Кадры) : 0.064
Размер потока : 92,8 Мбайт (96%)
Дата пометки : UTC 2012-04-23 10:49:39

Аудио
Идентификатор : 2
Формат : AAC
Формат/Информация : Advanced Audio Codec
Профиль формата : LC
Идентификатор кодека : 40
Продолжительность : 3 м. 54 с.
Вид битрейта : Переменный
Битрейт : 152 Кбит/сек
Максимальный битрейт : 210 Кбит/сек
Каналы : 2 канала
Расположение каналов : Front: L R
Частота : 44,1 КГц
Метод сжатия : С потерями
Размер потока : 4,25 Мбайт (4%)
Заголовок : IsoMedia File Produced by Google, 5-11-2011
Дата кодирования : UTC 2012-04-23 10:49:39
Дата пометки : UTC 2012-04-23 10:49:39

Общее
Полное имя : E:Armada Music (2012)Chicane & Ferry Corsten - One Thousand Suns (Original Mix) [Official Music Video].mp4
Формат : MPEG-4
Профиль формата : Base Media / Version 2
Идентификатор кодека : mp42
Размер файла : 86,0 Мбайт
Продолжительность : 4 м. 1 с.
Режим общего битрейта : Переменный
Общий поток : 2985 Кбит/сек
Дата кодирования : UTC 2012-09-06 12:49:39
Дата пометки : UTC 2012-09-06 12:49:39
gsst : 0
gstd : 241811
gssd : B2EE8CF46HM1357416234532550
gshh : r3---sn-hxb54vo-304e.c.youtube.com

Видео
Идентификатор : 1
Формат : AVC
Формат/Информация : Advanced Video Codec
Профиль формата : High@L3.1
Параметр CABAC формата : Да
Параметр ReFrames формата : 1 кадр
Идентификатор кодека : avc1
Идентификатор кодека/Информация : Advanced Video Coding
Продолжительность : 4 м. 1 с.
Битрейт : 2790 Кбит/сек
Максимальный битрейт : 7102 Кбит/сек
Ширина : 1280 пикселей
Высота : 720 пикселей
Соотношение сторон : 16:9
Режим частоты кадров : Постоянный
Частота кадров : 25,000 кадров/сек
Цветовое пространство : YUV
Субдискретизация насыщенности : 4:2:0
Битовая глубина : 8 бит
Тип развёртки : Прогрессивная
Бит/(Пиксели*Кадры) : 0.121
Размер потока : 80,4 Мбайт (93%)
Дата пометки : UTC 2012-09-06 12:49:39

Аудио
Идентификатор : 2
Формат : AAC
Формат/Информация : Advanced Audio Codec
Профиль формата : LC
Идентификатор кодека : 40
Продолжительность : 4 м. 1 с.
Вид битрейта : Переменный
Битрейт : 192 Кбит/сек
Максимальный битрейт : 203 Кбит/сек
Каналы : 2 канала
Расположение каналов : Front: L R
Частота : 44,1 КГц
Метод сжатия : С потерями
Размер потока : 5,53 Мбайт (6%)
Заголовок : IsoMedia File Produced by Google, 5-11-2011
Дата кодирования : UTC 2012-09-06 12:49:39
Дата пометки : UTC 2012-09-06 12:49:39

Общее
Полное имя : E:Armada Music (2012)Chicane & Ferry Corsten - One Thousand Suns (Soundprank Remix) [Official Music Video].mp4
Формат : MPEG-4
Профиль формата : Base Media / Version 2
Идентификатор кодека : mp42
Размер файла : 95,6 Мбайт
Продолжительность : 4 м. 22 с.
Режим общего битрейта : Переменный
Общий поток : 3057 Кбит/сек
Дата кодирования : UTC 2012-08-29 14:13:17
Дата пометки : UTC 2012-08-29 14:13:17
gsst : 0
gstd : 262431
gssd : B2EE8CF46MH1357416392851107
gshh : r3---sn-hxb54vo-304e.c.youtube.com

Видео
Идентификатор : 1
Формат : AVC
Формат/Информация : Advanced Video Codec
Профиль формата : High@L3.1
Параметр CABAC формата : Да
Параметр ReFrames формата : 1 кадр
Идентификатор кодека : avc1
Идентификатор кодека/Информация : Advanced Video Coding
Продолжительность : 4 м. 22 с.
Битрейт : 2862 Кбит/сек
Максимальный битрейт : 12,6 Мбит/сек
Ширина : 1280 пикселей
Высота : 720 пикселей
Соотношение сторон : 16:9
Режим частоты кадров : Постоянный
Частота кадров : 25,000 кадров/сек
Цветовое пространство : YUV
Субдискретизация насыщенности : 4:2:0
Битовая глубина : 8 бит
Тип развёртки : Прогрессивная
Бит/(Пиксели*Кадры) : 0.124
Размер потока : 89,5 Мбайт (94%)
Дата пометки : UTC 2012-08-29 14:13:18

Аудио
Идентификатор : 2
Формат : AAC
Формат/Информация : Advanced Audio Codec
Профиль формата : LC
Идентификатор кодека : 40
Продолжительность : 4 м. 22 с.
Вид битрейта : Переменный
Битрейт : 192 Кбит/сек
Максимальный битрейт : 203 Кбит/сек
Каналы : 2 канала
Расположение каналов : Front: L R
Частота : 44,1 КГц
Метод сжатия : С потерями
Размер потока : 6,00 Мбайт (6%)
Заголовок : IsoMedia File Produced by Google, 5-11-2011
Дата кодирования : UTC 2012-08-29 14:13:18
Дата пометки : UTC 2012-08-29 14:13:18

Общее
Полное имя : E:Armada Music (2012)Dabruck & Klein feat. Anna McDonald - All About You (Official Music Video).mp4
Формат : MPEG-4
Профиль формата : Base Media / Version 2
Идентификатор кодека : mp42
Размер файла : 116 Мбайт
Продолжительность : 3 м. 51 с.
Режим общего битрейта : Переменный
Общий поток : 4207 Кбит/сек
Дата кодирования : UTC 2012-05-03 09:56:29
Дата пометки : UTC 2012-05-03 09:56:29
gsst : 0
gstd : 232083
gssd : B2EE8CF44MH1357417290068740
gshh : r1---sn-hxb54vo-304e.c.youtube.com

Видео
Идентификатор : 1
Формат : AVC
Формат/Информация : Advanced Video Codec
Профиль формата : High@L4.0
Параметр CABAC формата : Да
Параметр ReFrames формата : 1 кадр
Идентификатор кодека : avc1
Идентификатор кодека/Информация : Advanced Video Coding
Продолжительность : 3 м. 51 с.
Битрейт : 4052 Кбит/сек
Максимальный битрейт : 10,3 Мбит/сек
Ширина : 1920 пикселей
Высота : 1080 пикселей
Соотношение сторон : 16:9
Режим частоты кадров : Постоянный
Частота кадров : 25,000 кадров/сек
Цветовое пространство : YUV
Субдискретизация насыщенности : 4:2:0
Битовая глубина : 8 бит
Тип развёртки : Прогрессивная
Бит/(Пиксели*Кадры) : 0.078
Размер потока : 112 Мбайт (96%)
Дата пометки : UTC 2012-05-03 09:56:29

Аудио
Идентификатор : 2
Формат : AAC
Формат/Информация : Advanced Audio Codec
Профиль формата : LC
Идентификатор кодека : 40
Продолжительность : 3 м. 51 с.
Вид битрейта : Переменный
Битрейт : 152 Кбит/сек
Максимальный битрейт : 253 Кбит/сек
Каналы : 2 канала
Расположение каналов : Front: L R
Частота : 44,1 КГц
Метод сжатия : С потерями
Размер потока : 4,20 Мбайт (4%)
Заголовок : IsoMedia File Produced by Google, 5-11-2011
Дата кодирования : UTC 2012-05-03 09:56:29
Дата пометки : UTC 2012-05-03 09:56:29

Общее
Полное имя : E:Armada Music (2012)Dabruck & Klein feat. Ollie James - I Found Love (Official Music Video) 4K.mp4
Формат : MPEG-4
Профиль формата : Base Media / Version 2
Идентификатор кодека : mp42
Размер файла : 88,8 Мбайт
Продолжительность : 4 м. 6 с.
Режим общего битрейта : Переменный
Общий поток : 3025 Кбит/сек
Дата кодирования : UTC 2012-02-01 09:04:26
Дата пометки : UTC 2012-02-01 09:04:26
gsst : 0
gstd : 246363
gssd : B2EE8CF46MH1357417741479160
gshh : r3---sn-hxb54vo-304e.c.youtube.com

Видео
Идентификатор : 1
Формат : AVC
Формат/Информация : Advanced Video Codec
Профиль формата : High@L4.0
Параметр CABAC формата : Да
Параметр ReFrames формата : 1 кадр
Идентификатор кодека : avc1
Идентификатор кодека/Информация : Advanced Video Coding
Продолжительность : 4 м. 6 с.
Битрейт : 2870 Кбит/сек
Максимальный битрейт : 10,4 Мбит/сек
Ширина : 1920 пикселей
Высота : 960 пикселей
Соотношение сторон : 2,000
Режим частоты кадров : Постоянный
Частота кадров : 25,000 кадров/сек
Цветовое пространство : YUV
Субдискретизация насыщенности : 4:2:0
Битовая глубина : 8 бит
Тип развёртки : Прогрессивная
Бит/(Пиксели*Кадры) : 0.062
Размер потока : 84,3 Мбайт (95%)
Дата пометки : UTC 2012-02-01 09:04:26

Аудио
Идентификатор : 2
Формат : AAC
Формат/Информация : Advanced Audio Codec
Профиль формата : LC
Идентификатор кодека : 40
Продолжительность : 4 м. 6 с.
Вид битрейта : Переменный
Битрейт : 152 Кбит/сек
Максимальный битрейт : 182 Кбит/сек
Каналы : 2 канала
Расположение каналов : Front: L R
Частота : 44,1 КГц
Метод сжатия : С потерями
Размер потока : 4,46 Мбайт (5%)
Заголовок : IsoMedia File Produced by Google, 5-11-2011
Дата кодирования : UTC 2012-02-01 09:04:26
Дата пометки : UTC 2012-02-01 09:04:26

Общее
Полное имя : E:Armada Music (2012)Daleri - En Route (Official Music Video).mp4
Формат : MPEG-4
Профиль формата : Base Media / Version 2
Идентификатор кодека : mp42
Размер файла : 66,2 Мбайт
Продолжительность : 4 м. 4 с.
Режим общего битрейта : Переменный
Общий поток : 2275 Кбит/сек
Дата кодирования : UTC 2012-11-05 11:24:16
Дата пометки : UTC 2012-11-05 11:24:16
gsst : 0
gstd : 244203
gssd : B2EE8CF4AMM1357415215751142
gshh : r7---sn-hxb54vo-304e.c.youtube.com

Видео
Идентификатор : 1
Формат : AVC
Формат/Информация : Advanced Video Codec
Профиль формата : High@L3.1
Параметр CABAC формата : Да
Параметр ReFrames формата : 1 кадр
Идентификатор кодека : avc1
Идентификатор кодека/Информация : Advanced Video Coding
Продолжительность : 4 м. 4 с.
Битрейт : 2081 Кбит/сек
Максимальный битрейт : 7126 Кбит/сек
Ширина : 1280 пикселей
Высота : 720 пикселей
Соотношение сторон : 16:9
Режим частоты кадров : Постоянный
Частота кадров : 23,976 кадра/сек
Цветовое пространство : YUV
Субдискретизация насыщенности : 4:2:0
Битовая глубина : 8 бит
Тип развёртки : Прогрессивная
Бит/(Пиксели*Кадры) : 0.094
Размер потока : 60,5 Мбайт (91%)
Дата пометки : UTC 2012-11-05 11:24:16

Аудио
Идентификатор : 2
Формат : AAC
Формат/Информация : Advanced Audio Codec
Профиль формата : LC
Идентификатор кодека : 40
Продолжительность : 4 м. 4 с.
Вид битрейта : Переменный
Битрейт : 192 Кбит/сек
Максимальный битрейт : 202 Кбит/сек
Каналы : 2 канала
Расположение каналов : Front: L R
Частота : 44,1 КГц
Метод сжатия : С потерями
Размер потока : 5,59 Мбайт (8%)
Заголовок : IsoMedia File Produced by Google, 5-11-2011
Дата кодирования : UTC 2012-11-05 11:24:16
Дата пометки : UTC 2012-11-05 11:24:16

Общее
Полное имя : E:Armada Music (2012)Dash Berlin feat. Chris Madin - Silence In Your Heart (Official Music Video).mp4
Формат : MPEG-4
Профиль формата : Base Media / Version 2
Идентификатор кодека : mp42
Размер файла : 122 Мбайт
Продолжительность : 2 м. 56 с.
Режим общего битрейта : Переменный
Общий поток : 5824 Кбит/сек
Дата кодирования : UTC 2012-07-15 15:01:27
Дата пометки : UTC 2012-07-15 15:01:27
gsst : 0
gstd : 176145
gssd : B2EE8CF49MH1357416816368478
gshh : r6---sn-hxb54vo-304e.c.youtube.com

Видео
Идентификатор : 1
Формат : AVC
Формат/Информация : Advanced Video Codec
Профиль формата : High@L4.0
Параметр CABAC формата : Да
Параметр ReFrames формата : 1 кадр
Идентификатор кодека : avc1
Идентификатор кодека/Информация : Advanced Video Coding
Продолжительность : 2 м. 56 с.
Битрейт : 5629 Кбит/сек
Максимальный битрейт : 22,8 Мбит/сек
Ширина : 1920 пикселей
Высота : 1080 пикселей
Соотношение сторон : 16:9
Режим частоты кадров : Постоянный
Частота кадров : 25,000 кадров/сек
Цветовое пространство : YUV
Субдискретизация насыщенности : 4:2:0
Битовая глубина : 8 бит
Тип развёртки : Прогрессивная
Бит/(Пиксели*Кадры) : 0.109
Размер потока : 118 Мбайт (97%)
Дата пометки : UTC 2012-07-15 15:01:27

Аудио
Идентификатор : 2
Формат : AAC
Формат/Информация : Advanced Audio Codec
Профиль формата : LC
Идентификатор кодека : 40
Продолжительность : 2 м. 55 с.
Вид битрейта : Переменный
Битрейт : 192 Кбит/сек
Максимальный битрейт : 202 Кбит/сек
Каналы : 2 канала
Расположение каналов : Front: L R
Частота : 44,1 КГц
Метод сжатия : С потерями
Размер потока : 4,03 Мбайт (3%)
Заголовок : IsoMedia File Produced by Google, 5-11-2011
Дата кодирования : UTC 2012-07-15 15:01:27
Дата пометки : UTC 2012-07-15 15:01:27

Общее
Полное имя : E:Armada Music (2012)Dash Berlin feat. Emma Hewitt - Like Spinning Plates (Official Music Video).mp4
Формат : MPEG-4
Профиль формата : Base Media / Version 2
Идентификатор кодека : mp42
Размер файла : 55,7 Мбайт
Продолжительность : 3 м. 23 с.
Режим общего битрейта : Переменный
Общий поток : 2295 Кбит/сек
Дата кодирования : UTC 2012-08-20 15:49:31
Дата пометки : UTC 2012-08-20 15:49:31
gsst : 0
gstd : 203776
gssd : B2EE8CF46MH1357416511935941
gshh : r3---sn-hxb54vo-304e.c.youtube.com

Видео
Идентификатор : 1
Формат : AVC
Формат/Информация : Advanced Video Codec
Профиль формата : High@L4.0
Параметр CABAC формата : Да
Параметр ReFrames формата : 1 кадр
Идентификатор кодека : avc1
Идентификатор кодека/Информация : Advanced Video Coding
Продолжительность : 3 м. 23 с.
Битрейт : 2101 Кбит/сек
Максимальный битрейт : 5457 Кбит/сек
Ширина : 1920 пикселей
Высота : 1080 пикселей
Соотношение сторон : 16:9
Режим частоты кадров : Постоянный
Частота кадров : 25,000 кадров/сек
Цветовое пространство : YUV
Субдискретизация насыщенности : 4:2:0
Битовая глубина : 8 бит
Тип развёртки : Прогрессивная
Бит/(Пиксели*Кадры) : 0.041
Размер потока : 51,0 Мбайт (92%)
Дата пометки : UTC 2012-08-20 15:49:32

Аудио
Идентификатор : 2
Формат : AAC
Формат/Информация : Advanced Audio Codec
Профиль формата : LC
Идентификатор кодека : 40
Продолжительность : 3 м. 23 с.
Вид битрейта : Переменный
Битрейт : 192 Кбит/сек
Максимальный битрейт : 204 Кбит/сек
Каналы : 2 канала
Расположение каналов : Front: L R
Частота : 44,1 КГц
Метод сжатия : С потерями
Размер потока : 4,66 Мбайт (8%)
Заголовок : IsoMedia File Produced by Google, 5-11-2011
Дата кодирования : UTC 2012-08-20 15:49:32
Дата пометки : UTC 2012-08-20 15:49:32

Общее
Полное имя : E:Armada Music (2012)Dash Berlin feat. Jonathan Mendelsohn - World Falls Apart (Official Music Video).mp4
Формат : MPEG-4
Профиль формата : Base Media / Version 2
Идентификатор кодека : mp42
Размер файла : 101 Мбайт
Продолжительность : 5 м. 54 с.
Режим общего битрейта : Переменный
Общий поток : 2388 Кбит/сек
Дата кодирования : UTC 2012-01-25 05:08:45
Дата пометки : UTC 2012-01-25 05:08:45
gsst : 0
gstd : 354196
gssd : B2EE8CF46MM1357417806621412
gshh : r3---sn-hxb54vo-304e.c.youtube.com

Видео
Идентификатор : 1
Формат : AVC
Формат/Информация : Advanced Video Codec
Профиль формата : High@L4.0
Параметр CABAC формата : Да
Параметр ReFrames формата : 1 кадр
Идентификатор кодека : avc1
Идентификатор кодека/Информация : Advanced Video Coding
Продолжительность : 5 м. 54 с.
Битрейт : 2233 Кбит/сек
Максимальный битрейт : 8199 Кбит/сек
Ширина : 1920 пикселей
Высота : 1080 пикселей
Соотношение сторон : 16:9
Режим частоты кадров : Постоянный
Частота кадров : 25,000 кадров/сек
Цветовое пространство : YUV
Субдискретизация насыщенности : 4:2:0
Битовая глубина : 8 бит
Тип развёртки : Прогрессивная
Бит/(Пиксели*Кадры) : 0.043
Размер потока : 94,3 Мбайт (94%)
Дата пометки : UTC 2012-01-25 05:08:46

Аудио
Идентификатор : 2
Формат : AAC
Формат/Информация : Advanced Audio Codec
Профиль формата : LC
Идентификатор кодека : 40
Продолжительность : 5 м. 54 с.
Вид битрейта : Переменный
Битрейт : 152 Кбит/сек
Максимальный битрейт : 253 Кбит/сек
Каналы : 2 канала
Расположение каналов : Front: L R
Частота : 44,1 КГц
Метод сжатия : С потерями
Размер потока : 6,42 Мбайт (6%)
Заголовок : IsoMedia File Produced by Google, 5-11-2011
Дата кодирования : UTC 2012-01-25 05:08:46
Дата пометки : UTC 2012-01-25 05:08:46

Общее
Полное имя : E:Armada Music (2012)Dash Berlin ft. Kate Walsh - When You Were Around (Official Music Video).mp4
Формат : MPEG-4
Профиль формата : Base Media / Version 2
Идентификатор кодека : mp42
Размер файла : 56,1 Мбайт
Продолжительность : 3 м. 24 с.
Режим общего битрейта : Переменный
Общий поток : 2303 Кбит/сек
Дата кодирования : UTC 2012-11-11 20:23:44
Дата пометки : UTC 2012-11-11 20:23:44
gsst : 0
gstd : 204358
gssd : B2EE8CF49HH1357414919753756
gshh : r6---sn-hxb54vo-304e.c.youtube.com

Видео
Идентификатор : 1
Формат : AVC
Формат/Информация : Advanced Video Codec
Профиль формата : High@L4.0
Параметр CABAC формата : Да
Параметр ReFrames формата : 1 кадр
Идентификатор кодека : avc1
Идентификатор кодека/Информация : Advanced Video Coding
Продолжительность : 3 м. 24 с.
Битрейт : 2109 Кбит/сек
Максимальный битрейт : 10,2 Мбит/сек
Ширина : 1920 пикселей
Высота : 1080 пикселей
Соотношение сторон : 16:9
Режим частоты кадров : Постоянный
Частота кадров : 25,000 кадров/сек
Цветовое пространство : YUV
Субдискретизация насыщенности : 4:2:0
Битовая глубина : 8 бит
Тип развёртки : Прогрессивная
Бит/(Пиксели*Кадры) : 0.041
Размер потока : 51,3 Мбайт (92%)
Дата пометки : UTC 2012-11-11 20:23:45

Аудио
Идентификатор : 2
Формат : AAC
Формат/Информация : Advanced Audio Codec
Профиль формата : LC
Идентификатор кодека : 40
Продолжительность : 3 м. 24 с.
Вид битрейта : Переменный
Битрейт : 192 Кбит/сек
Максимальный битрейт : 201 Кбит/сек
Каналы : 2 канала
Расположение каналов : Front: L R
Частота : 44,1 КГц
Метод сжатия : С потерями
Размер потока : 4,67 Мбайт (8%)
Заголовок : IsoMedia File Produced by Google, 5-11-2011
Дата кодирования : UTC 2012-11-11 20:23:45
Дата пометки : UTC 2012-11-11 20:23:45

Общее
Полное имя : E:Armada Music (2012)Dash Berlin ft. Sarah Howells - Go It Alone (Official Music Video).mp4
Формат : MPEG-4
Профиль формата : Base Media / Version 2
Идентификатор кодека : mp42
Размер файла : 96,2 Мбайт
Продолжительность : 4 м. 28 с.
Режим общего битрейта : Переменный
Общий поток : 3008 Кбит/сек
Дата кодирования : UTC 2012-04-09 18:22:06
Дата пометки : UTC 2012-04-09 18:22:06
gsst : 0
gstd : 268283
gssd : B2EE8CF45HH1357417453171985
gshh : r2---sn-hxb54vo-304e.c.youtube.com

Видео
Идентификатор : 1
Формат : AVC
Формат/Информация : Advanced Video Codec
Профиль формата : High@L4.0
Параметр CABAC формата : Да
Параметр ReFrames формата : 1 кадр
Идентификатор кодека : avc1
Идентификатор кодека/Информация : Advanced Video Coding
Продолжительность : 4 м. 28 с.
Битрейт : 2854 Кбит/сек
Максимальный битрейт : 10,2 Мбит/сек
Ширина : 1920 пикселей
Высота : 1080 пикселей
Соотношение сторон : 16:9
Режим частоты кадров : Постоянный
Частота кадров : 25,000 кадров/сек
Цветовое пространство : YUV
Субдискретизация насыщенности : 4:2:0
Битовая глубина : 8 бит
Тип развёртки : Прогрессивная
Бит/(Пиксели*Кадры) : 0.055
Размер потока : 91,3 Мбайт (95%)
Дата пометки : UTC 2012-04-09 18:22:06

Аудио
Идентификатор : 2
Формат : AAC
Формат/Информация : Advanced Audio Codec
Профиль формата : LC
Идентификатор кодека : 40
Продолжительность : 4 м. 28 с.
Вид битрейта : Переменный
Битрейт : 152 Кбит/сек
Максимальный битрейт : 212 Кбит/сек
Каналы : 2 канала
Расположение каналов : Front: L R
Частота : 44,1 КГц
Метод сжатия : С потерями
Размер потока : 4,86 Мбайт (5%)
Заголовок : IsoMedia File Produced by Google, 5-11-2011
Дата кодирования : UTC 2012-04-09 18:22:06
Дата пометки : UTC 2012-04-09 18:22:06

Общее
Полное имя : E:Armada Music (2012)Dash Berlin with Shogun - Callisto (Official Music Video).mp4
Формат : MPEG-4
Профиль формата : Base Media / Version 2
Идентификатор кодека : mp42
Размер файла : 57,8 Мбайт
Продолжительность : 2 м. 47 с.
Режим общего битрейта : Переменный
Общий поток : 2885 Кбит/сек
Дата кодирования : UTC 2012-07-02 14:44:15
Дата пометки : UTC 2012-07-02 14:44:15
gsst : 0
gstd : 168088
gssd : B2EE8CF45MM1357417000134782
gshh : r2---sn-hxb54vo-304e.c.youtube.com

Видео
Идентификатор : 1
Формат : AVC
Формат/Информация : Advanced Video Codec
Профиль формата : High@L3.1
Параметр CABAC формата : Да
Параметр ReFrames формата : 1 кадр
Идентификатор кодека : avc1
Идентификатор кодека/Информация : Advanced Video Coding
Продолжительность : 2 м. 47 с.
Битрейт : 2730 Кбит/сек
Максимальный битрейт : 8085 Кбит/сек
Ширина : 1280 пикселей
Высота : 720 пикселей
Соотношение сторон : 16:9
Режим частоты кадров : Постоянный
Частота кадров : 25,000 кадров/сек
Цветовое пространство : YUV
Субдискретизация насыщенности : 4:2:0
Битовая глубина : 8 бит
Тип развёртки : Прогрессивная
Бит/(Пиксели*Кадры) : 0.119
Размер потока : 54,7 Мбайт (95%)
Дата пометки : UTC 2012-07-02 14:44:15

Аудио
Идентификатор : 2
Формат : AAC
Формат/Информация : Advanced Audio Codec
Профиль формата : LC
Идентификатор кодека : 40
Продолжительность : 2 м. 47 с.
Вид битрейта : Переменный
Битрейт : 152 Кбит/сек
Максимальный битрейт : 210 Кбит/сек
Каналы : 2 канала
Расположение каналов : Front: L R
Частота : 44,1 КГц
Метод сжатия : С потерями
Размер потока : 3,04 Мбайт (5%)
Заголовок : IsoMedia File Produced by Google, 5-11-2011
Дата кодирования : UTC 2012-07-02 14:44:15
Дата пометки : UTC 2012-07-02 14:44:15

Общее
Полное имя : E:Armada Music (2012)Emma Hewitt - Colours (Armin van Buuren Remix) (Official Music Video).mp4
Формат : MPEG-4
Профиль формата : Base Media / Version 2
Идентификатор кодека : mp42
Размер файла : 65,8 Мбайт
Продолжительность : 3 м. 8 с.
Режим общего битрейта : Переменный
Общий поток : 2936 Кбит/сек
Дата кодирования : UTC 2012-01-23 10:53:19
Дата пометки : UTC 2012-01-23 10:53:19
gsst : 0
gstd : 188173
gssd : B2EE8CF49MM1357417834473412
gshh : r6---sn-hxb54vo-304e.c.youtube.com

Видео
Идентификатор : 1
Формат : AVC
Формат/Информация : Advanced Video Codec
Профиль формата : High@L4.0
Параметр CABAC формата : Да
Параметр ReFrames формата : 1 кадр
Идентификатор кодека : avc1
Идентификатор кодека/Информация : Advanced Video Coding
Продолжительность : 3 м. 8 с.
Битрейт : 2781 Кбит/сек
Максимальный битрейт : 9607 Кбит/сек
Ширина : 1920 пикселей
Высота : 1080 пикселей
Соотношение сторон : 16:9
Режим частоты кадров : Постоянный
Частота кадров : 25,000 кадров/сек
Цветовое пространство : YUV
Субдискретизация насыщенности : 4:2:0
Битовая глубина : 8 бит
Тип развёртки : Прогрессивная
Бит/(Пиксели*Кадры) : 0.054
Размер потока : 62,4 Мбайт (95%)
Дата пометки : UTC 2012-01-23 10:53:19

Аудио
Идентификатор : 2
Формат : AAC
Формат/Информация : Advanced Audio Codec
Профиль формата : LC
Идентификатор кодека : 40
Продолжительность : 3 м. 8 с.
Вид битрейта : Переменный
Битрейт : 152 Кбит/сек
Максимальный битрейт : 184 Кбит/сек
Каналы : 2 канала
Расположение каналов : Front: L R
Частота : 44,1 КГц
Метод сжатия : С потерями
Размер потока : 3,41 Мбайт (5%)
Заголовок : IsoMedia File Produced by Google, 5-11-2011
Дата кодирования : UTC 2012-01-23 10:53:19
Дата пометки : UTC 2012-01-23 10:53:19

Общее
Полное имя : E:Armada Music (2012)Emma Hewitt - Colours (Official Music Video).mp4
Формат : MPEG-4
Профиль формата : Base Media / Version 2
Идентификатор кодека : mp42
Размер файла : 77,3 Мбайт
Продолжительность : 4 м. 0 с.
Режим общего битрейта : Переменный
Общий поток : 2690 Кбит/сек
Дата кодирования : UTC 2012-01-23 10:57:35
Дата пометки : UTC 2012-01-23 10:57:35
gsst : 0
gstd : 241021
gssd : B2EE8CF46HM1357417927441121
gshh : r3---sn-hxb54vo-304e.c.youtube.com

Видео
Идентификатор : 1
Формат : AVC
Формат/Информация : Advanced Video Codec
Профиль формата : High@L4.0
Параметр CABAC формата : Да
Параметр ReFrames формата : 1 кадр
Идентификатор кодека : avc1
Идентификатор кодека/Информация : Advanced Video Coding
Продолжительность : 4 м. 0 с.
Битрейт : 2535 Кбит/сек
Максимальный битрейт : 6602 Кбит/сек
Ширина : 1920 пикселей
Высота : 1080 пикселей
Соотношение сторон : 16:9
Режим частоты кадров : Постоянный
Частота кадров : 25,000 кадров/сек
Цветовое пространство : YUV
Субдискретизация насыщенности : 4:2:0
Битовая глубина : 8 бит
Тип развёртки : Прогрессивная
Бит/(Пиксели*Кадры) : 0.049
Размер потока : 72,8 Мбайт (94%)
Дата пометки : UTC 2012-01-23 10:57:35

Аудио
Идентификатор : 2
Формат : AAC
Формат/Информация : Advanced Audio Codec
Профиль формата : LC
Идентификатор кодека : 40
Продолжительность : 4 м. 0 с.
Вид битрейта : Переменный
Битрейт : 152 Кбит/сек
Максимальный битрейт : 217 Кбит/сек
Каналы : 2 канала
Расположение каналов : Front: L R
Частота : 44,1 КГц
Метод сжатия : С потерями
Размер потока : 4,37 Мбайт (6%)
Заголовок : IsoMedia File Produced by Google, 5-11-2011
Дата кодирования : UTC 2012-01-23 10:57:35
Дата пометки : UTC 2012-01-23 10:57:35

Общее
Полное имя : E:Armada Music (2012)Emma Hewitt - Foolish Boy (Official Music Video).mp4
Формат : MPEG-4
Профиль формата : Base Media / Version 2
Идентификатор кодека : mp42
Размер файла : 85,8 Мбайт
Продолжительность : 4 м. 42 с.
Режим общего битрейта : Переменный
Общий поток : 2552 Кбит/сек
Дата кодирования : UTC 2012-09-11 10:11:43
Дата пометки : UTC 2012-09-11 10:11:43
gsst : 0
gstd : 282238
gssd : B2EE8CF44HM1357416203704902
gshh : r1---sn-hxb54vo-304e.c.youtube.com

Видео
Идентификатор : 1
Формат : AVC
Формат/Информация : Advanced Video Codec
Профиль формата : High@L4.0
Параметр CABAC формата : Да
Параметр ReFrames формата : 1 кадр
Идентификатор кодека : avc1
Идентификатор кодека/Информация : Advanced Video Coding
Продолжительность : 4 м. 42 с.
Битрейт : 2358 Кбит/сек
Максимальный битрейт : 5472 Кбит/сек
Ширина : 1920 пикселей
Высота : 1080 пикселей
Соотношение сторон : 16:9
Режим частоты кадров : Постоянный
Частота кадров : 25,000 кадров/сек
Цветовое пространство : YUV
Субдискретизация насыщенности : 4:2:0
Битовая глубина : 8 бит
Тип развёртки : Прогрессивная
Бит/(Пиксели*Кадры) : 0.045
Размер потока : 79,3 Мбайт (92%)
Дата пометки : UTC 2012-09-11 10:11:43

Аудио
Идентификатор : 2
Формат : AAC
Формат/Информация : Advanced Audio Codec
Профиль формата : LC
Идентификатор кодека : 40
Продолжительность : 4 м. 42 с.
Вид битрейта : Переменный
Битрейт : 192 Кбит/сек
Максимальный битрейт : 202 Кбит/сек
Каналы : 2 канала
Расположение каналов : Front: L R
Частота : 44,1 КГц
Метод сжатия : С потерями
Размер потока : 6,46 Мбайт (8%)
Заголовок : IsoMedia File Produced by Google, 5-11-2011
Дата кодирования : UTC 2012-09-11 10:11:43
Дата пометки : UTC 2012-09-11 10:11:43

Общее
Полное имя : E:Armada Music (2012)Emma Hewitt - Miss You Paradise (Original Mix) [Official Music Video].mp4
Формат : MPEG-4
Профиль формата : Base Media / Version 2
Идентификатор кодека : mp42
Размер файла : 69,7 Мбайт
Продолжительность : 4 м. 7 с.
Режим общего битрейта : Переменный
Общий поток : 2361 Кбит/сек
Дата кодирования : UTC 2012-05-20 12:10:58
Дата пометки : UTC 2012-05-20 12:10:58
gsst : 0
gstd : 247871
gssd : B2EE8CF4AMM1357417194935499
gshh : r7---sn-hxb54vo-304e.c.youtube.com

Видео
Идентификатор : 1
Формат : AVC
Формат/Информация : Advanced Video Codec
Профиль формата : High@L4.0
Параметр CABAC формата : Да
Параметр ReFrames формата : 1 кадр
Идентификатор кодека : avc1
Идентификатор кодека/Информация : Advanced Video Coding
Продолжительность : 4 м. 7 с.
Битрейт : 2207 Кбит/сек
Максимальный битрейт : 4739 Кбит/сек
Ширина : 1920 пикселей
Высота : 1080 пикселей
Соотношение сторон : 16:9
Режим частоты кадров : Постоянный
Частота кадров : 25,000 кадров/сек
Цветовое пространство : YUV
Субдискретизация насыщенности : 4:2:0
Битовая глубина : 8 бит
Тип развёртки : Прогрессивная
Бит/(Пиксели*Кадры) : 0.043
Размер потока : 65,2 Мбайт (93%)
Дата пометки : UTC 2012-05-20 12:10:58

Аудио
Идентификатор : 2
Формат : AAC
Формат/Информация : Advanced Audio Codec
Профиль формата : LC
Идентификатор кодека : 40
Продолжительность : 4 м. 7 с.
Вид битрейта : Переменный
Битрейт : 152 Кбит/сек
Максимальный битрейт : 221 Кбит/сек
Каналы : 2 канала
Расположение каналов : Front: L R
Частота : 44,1 КГц
Метод сжатия : С потерями
Размер потока : 4,49 Мбайт (6%)
Заголовок : IsoMedia File Produced by Google, 5-11-2011
Дата кодирования : UTC 2012-05-20 12:10:58
Дата пометки : UTC 2012-05-20 12:10:58

Общее
Полное имя : E:Armada Music (2012)Emma Hewitt - Miss You Paradise (Shogun Remix) (Official Music Video).mp4
Формат : MPEG-4
Профиль формата : Base Media / Version 2
Идентификатор кодека : mp42
Размер файла : 74,8 Мбайт
Продолжительность : 4 м. 8 с.
Режим общего битрейта : Переменный
Общий поток : 2524 Кбит/сек
Дата кодирования : UTC 2012-05-01 11:07:27
Дата пометки : UTC 2012-05-01 11:07:27
gsst : 0
gstd : 248916
gssd : B2EE8CF46HH1357417356496017
gshh : r3---sn-hxb54vo-304e.c.youtube.com

Видео
Идентификатор : 1
Формат : AVC
Формат/Информация : Advanced Video Codec
Профиль формата : High@L4.0
Параметр CABAC формата : Да
Параметр ReFrames формата : 1 кадр
Идентификатор кодека : avc1
Идентификатор кодека/Информация : Advanced Video Coding
Продолжительность : 4 м. 8 с.
Битрейт : 2369 Кбит/сек
Максимальный битрейт : 7082 Кбит/сек
Ширина : 1920 пикселей
Высота : 1080 пикселей
Соотношение сторон : 16:9
Режим частоты кадров : Постоянный
Частота кадров : 25,000 кадров/сек
Цветовое пространство : YUV
Субдискретизация насыщенности : 4:2:0
Битовая глубина : 8 бит
Тип развёртки : Прогрессивная
Бит/(Пиксели*Кадры) : 0.046
Размер потока : 70,3 Мбайт (94%)
Дата пометки : UTC 2012-05-01 11:07:27

Аудио
Идентификатор : 2
Формат : AAC
Формат/Информация : Advanced Audio Codec
Профиль формата : LC
Идентификатор кодека : 40
Продолжительность : 4 м. 8 с.
Вид битрейта : Переменный
Битрейт : 152 Кбит/сек
Максимальный битрейт : 245 Кбит/сек
Каналы : 2 канала
Расположение каналов : Front: L R
Частота : 44,1 КГц
Метод сжатия : С потерями
Размер потока : 4,51 Мбайт (6%)
Заголовок : IsoMedia File Produced by Google, 5-11-2011
Дата кодирования : UTC 2012-05-01 11:07:27
Дата пометки : UTC 2012-05-01 11:07:27

Общее
Полное имя : E:Armada Music (2012)Emma Hewitt - Rewind (Mikkas Remix).mp4
Формат : MPEG-4
Профиль формата : Base Media / Version 2
Идентификатор кодека : mp42
Размер файла : 144 Мбайт
Продолжительность : 3 м. 48 с.
Режим общего битрейта : Переменный
Общий поток : 5290 Кбит/сек
Дата кодирования : UTC 2012-12-02 09:11:11
Дата пометки : UTC 2012-12-02 09:11:11
gsst : 0
gstd : 228228
gssd : B2EE8CF49MH1357415622744818
gshh : r6---sn-hxb54vo-304e.c.youtube.com

Видео
Идентификатор : 1
Формат : AVC
Формат/Информация : Advanced Video Codec
Профиль формата : High@L4.0
Параметр CABAC формата : Да
Параметр ReFrames формата : 1 кадр
Идентификатор кодека : avc1
Идентификатор кодека/Информация : Advanced Video Coding
Продолжительность : 3 м. 48 с.
Битрейт : 5096 Кбит/сек
Максимальный битрейт : 10,1 Мбит/сек
Ширина : 1920 пикселей
Высота : 1080 пикселей
Соотношение сторон : 16:9
Режим частоты кадров : Постоянный
Частота кадров : 25,000 кадров/сек
Цветовое пространство : YUV
Субдискретизация насыщенности : 4:2:0
Битовая глубина : 8 бит
Тип развёртки : Прогрессивная
Бит/(Пиксели*Кадры) : 0.098
Размер потока : 139 Мбайт (96%)
Дата пометки : UTC 2012-12-02 09:11:11

Аудио
Идентификатор : 2
Формат : AAC
Формат/Информация : Advanced Audio Codec
Профиль формата : LC
Идентификатор кодека : 40
Продолжительность : 3 м. 48 с.
Вид битрейта : Переменный
Битрейт : 192 Кбит/сек
Максимальный битрейт : 201 Кбит/сек
Каналы : 2 канала
Расположение каналов : Front: L R
Частота : 44,1 КГц
Метод сжатия : С потерями
Размер потока : 5,22 Мбайт (4%)
Заголовок : IsoMedia File Produced by Google, 5-11-2011
Дата кодирования : UTC 2012-12-02 09:11:11
Дата пометки : UTC 2012-12-02 09:11:11

Общее
Полное имя : E:Armada Music (2012)Gabriel & Dresden feat. Betsie Larkin - Play It Back (Official Music Video).mp4
Формат : MPEG-4
Профиль формата : Base Media / Version 2
Идентификатор кодека : mp42
Размер файла : 105 Мбайт
Продолжительность : 4 м. 3 с.
Режим общего битрейта : Переменный
Общий поток : 3621 Кбит/сек
Дата кодирования : UTC 2012-12-19 08:57:41
Дата пометки : UTC 2012-12-19 08:57:41
gsst : 0
gstd : 244133
gssd : B2EE8CF44HH1357415570413177
gshh : r1---sn-hxb54vo-304e.c.youtube.com

Видео
Идентификатор : 1
Формат : AVC
Формат/Информация : Advanced Video Codec
Профиль формата : High@L4.0
Параметр CABAC формата : Да
Параметр ReFrames формата : 1 кадр
Идентификатор кодека : avc1
Идентификатор кодека/Информация : Advanced Video Coding
Продолжительность : 4 м. 3 с.
Битрейт : 3426 Кбит/сек
Максимальный битрейт : 9516 Кбит/сек
Ширина : 1920 пикселей
Высота : 1080 пикселей
Соотношение сторон : 16:9
Режим частоты кадров : Постоянный
Частота кадров : 23,976 кадра/сек
Цветовое пространство : YUV
Субдискретизация насыщенности : 4:2:0
Битовая глубина : 8 бит
Тип развёртки : Прогрессивная
Бит/(Пиксели*Кадры) : 0.069
Размер потока : 99,7 Мбайт (95%)
Дата пометки : UTC 2012-12-19 08:57:41

Аудио
Идентификатор : 2
Формат : AAC
Формат/Информация : Advanced Audio Codec
Профиль формата : LC
Идентификатор кодека : 40
Продолжительность : 4 м. 3 с.
Вид битрейта : Переменный
Битрейт : 192 Кбит/сек
Максимальный битрейт : 201 Кбит/сек
Каналы : 2 канала
Расположение каналов : Front: L R
Частота : 44,1 КГц
Метод сжатия : С потерями
Размер потока : 5,58 Мбайт (5%)
Заголовок : IsoMedia File Produced by Google, 5-11-2011
Дата кодирования : UTC 2012-12-19 08:57:41
Дата пометки : UTC 2012-12-19 08:57:41

Общее
Полное имя : E:Armada Music (2012)Giuseppe Ottaviani feat. Amba Shepherd - Lost For Words (Official Music Video).mp4
Формат : MPEG-4
Профиль формата : Base Media / Version 2
Идентификатор кодека : mp42
Размер файла : 73,6 Мбайт
Продолжительность : 4 м. 22 с.
Режим общего битрейта : Переменный
Общий поток : 2350 Кбит/сек
Дата кодирования : UTC 2012-11-18 12:33:03
Дата пометки : UTC 2012-11-18 12:33:03
gsst : 0
gstd : 262803
gssd : B2EE8CF48MH1357415751920001
gshh : r5---sn-hxb54vo-304e.c.youtube.com

Видео
Идентификатор : 1
Формат : AVC
Формат/Информация : Advanced Video Codec
Профиль формата : High@L4.0
Параметр CABAC формата : Да
Параметр ReFrames формата : 1 кадр
Идентификатор кодека : avc1
Идентификатор кодека/Информация : Advanced Video Coding
Продолжительность : 4 м. 22 с.
Битрейт : 2156 Кбит/сек
Максимальный битрейт : 4536 Кбит/сек
Ширина : 1920 пикселей
Высота : 1080 пикселей
Соотношение сторон : 16:9
Режим частоты кадров : Постоянный
Частота кадров : 25,000 кадров/сек
Цветовое пространство : YUV
Субдискретизация насыщенности : 4:2:0
Битовая глубина : 8 бит
Тип развёртки : Прогрессивная
Бит/(Пиксели*Кадры) : 0.042
Размер потока : 67,5 Мбайт (92%)
Дата пометки : UTC 2012-11-18 12:33:03

Аудио
Идентификатор : 2
Формат : AAC
Формат/Информация : Advanced Audio Codec
Профиль формата : LC
Идентификатор кодека : 40
Продолжительность : 4 м. 22 с.
Вид битрейта : Переменный
Битрейт : 192 Кбит/сек
Максимальный битрейт : 201 Кбит/сек
Каналы : 2 канала
Расположение каналов : Front: L R
Частота : 44,1 КГц
Метод сжатия : С потерями
Размер потока : 6,01 Мбайт (8%)
Заголовок : IsoMedia File Produced by Google, 5-11-2011
Дата кодирования : UTC 2012-11-18 12:33:03
Дата пометки : UTC 2012-11-18 12:33:03

Общее
Полное имя : E:Armada Music (2012)Hardwell - Cobra (Official Music Video).mp4
Формат : MPEG-4
Профиль формата : Base Media / Version 2
Идентификатор кодека : mp42
Размер файла : 70,2 Мбайт
Продолжительность : 3 м. 13 с.
Режим общего битрейта : Переменный
Общий поток : 3038 Кбит/сек
Дата кодирования : UTC 2012-10-01 08:19:10
Дата пометки : UTC 2012-10-01 08:19:10
gsst : 0
gstd : 193931
gssd : B2EE8CF4AMH1357416152417762
gshh : r7---sn-hxb54vo-304e.c.youtube.com

Видео
Идентификатор : 1
Формат : AVC
Формат/Информация : Advanced Video Codec
Профиль формата : High@L3.1
Параметр CABAC формата : Да
Параметр ReFrames формата : 1 кадр
Идентификатор кодека : avc1
Идентификатор кодека/Информация : Advanced Video Coding
Продолжительность : 3 м. 13 с.
Битрейт : 2844 Кбит/сек
Максимальный битрейт : 5559 Кбит/сек
Ширина : 1280 пикселей
Высота : 720 пикселей
Соотношение сторон : 16:9
Режим частоты кадров : Постоянный
Частота кадров : 25,000 кадров/сек
Цветовое пространство : YUV
Субдискретизация насыщенности : 4:2:0
Битовая глубина : 8 бит
Тип развёртки : Прогрессивная
Бит/(Пиксели*Кадры) : 0.123
Размер потока : 65,7 Мбайт (94%)
Дата пометки : UTC 2012-10-01 08:19:10

Аудио
Идентификатор : 2
Формат : AAC
Формат/Информация : Advanced Audio Codec
Профиль формата : LC
Идентификатор кодека : 40
Продолжительность : 3 м. 13 с.
Вид битрейта : Переменный
Битрейт : 192 Кбит/сек
Максимальный битрейт : 202 Кбит/сек
Каналы : 2 канала
Расположение каналов : Front: L R
Частота : 44,1 КГц
Метод сжатия : С потерями
Размер потока : 4,44 Мбайт (6%)
Заголовок : IsoMedia File Produced by Google, 5-11-2011
Дата кодирования : UTC 2012-10-01 08:19:10
Дата пометки : UTC 2012-10-01 08:19:10

Общее
Полное имя : E:Armada Music (2012)Hardwell feat. Mitch Crown - Call Me A Spaceman (Official Music Video).mp4
Формат : MPEG-4
Профиль формата : Base Media / Version 2
Идентификатор кодека : mp42
Размер файла : 42,1 Мбайт
Продолжительность : 3 м. 10 с.
Режим общего битрейта : Переменный
Общий поток : 1852 Кбит/сек
Дата кодирования : UTC 2012-09-25 13:01:58
Дата пометки : UTC 2012-09-25 13:01:58
gsst : 0
gstd : 190843
gssd : B2EE8CF4AHH1357416422035729
gshh : r7---sn-hxb54vo-304e.c.youtube.com

Видео
Идентификатор : 1
Формат : AVC
Формат/Информация : Advanced Video Codec
Профиль формата : High@L3.1
Параметр CABAC формата : Да
Параметр ReFrames формата : 1 кадр
Идентификатор кодека : avc1
Идентификатор кодека/Информация : Advanced Video Coding
Продолжительность : 3 м. 10 с.
Битрейт : 1658 Кбит/сек
Максимальный битрейт : 4731 Кбит/сек
Ширина : 1280 пикселей
Высота : 720 пикселей
Соотношение сторон : 16:9
Режим частоты кадров : Постоянный
Частота кадров : 25,000 кадров/сек
Цветовое пространство : YUV
Субдискретизация насыщенности : 4:2:0
Битовая глубина : 8 бит
Тип развёртки : Прогрессивная
Бит/(Пиксели*Кадры) : 0.072
Размер потока : 37,7 Мбайт (89%)
Дата пометки : UTC 2012-09-25 13:01:58

Аудио
Идентификатор : 2
Формат : AAC
Формат/Информация : Advanced Audio Codec
Профиль формата : LC
Идентификатор кодека : 40
Продолжительность : 3 м. 10 с.
Вид битрейта : Переменный
Битрейт : 192 Кбит/сек
Максимальный битрейт : 201 Кбит/сек
Каналы : 2 канала
Расположение каналов : Front: L R
Частота : 44,1 КГц
Метод сжатия : С потерями
Размер потока : 4,37 Мбайт (10%)
Заголовок : IsoMedia File Produced by Google, 5-11-2011
Дата кодирования : UTC 2012-09-25 13:01:58
Дата пометки : UTC 2012-09-25 13:01:58

Общее
Полное имя : E:Armada Music (2012)Markus Schulz - Rain (Official Music Video).mp4
Формат : MPEG-4
Профиль формата : Base Media / Version 2
Идентификатор кодека : mp42
Размер файла : 59,8 Мбайт
Продолжительность : 3 м. 26 с.
Режим общего битрейта : Переменный
Общий поток : 2430 Кбит/сек
Дата кодирования : UTC 2010-10-07 15:10:27
Дата пометки : UTC 2010-10-07 15:10:27
gsst : 0
gstd : 206320
gssd : BADC23AC2HH1357416307734545
gshh : r2---sn-n8v7lnel.c.youtube.com

Видео
Идентификатор : 1
Формат : AVC
Формат/Информация : Advanced Video Codec
Профиль формата : High@L3.1
Параметр CABAC формата : Да
Параметр ReFrames формата : 1 кадр
Идентификатор кодека : avc1
Идентификатор кодека/Информация : Advanced Video Coding
Продолжительность : 3 м. 26 с.
Битрейт : 2297 Кбит/сек
Максимальный битрейт : 7548 Кбит/сек
Ширина : 1280 пикселей
Высота : 720 пикселей
Соотношение сторон : 16:9
Режим частоты кадров : Постоянный
Частота кадров : 25,000 кадров/сек
Цветовое пространство : YUV
Субдискретизация насыщенности : 4:2:0
Битовая глубина : 8 бит
Тип развёртки : Прогрессивная
Бит/(Пиксели*Кадры) : 0.100
Размер потока : 56,5 Мбайт (95%)
Дата пометки : UTC 2010-10-07 15:10:30

Аудио
Идентификатор : 2
Формат : AAC
Формат/Информация : Advanced Audio Codec
Профиль формата : LC
Идентификатор кодека : 40
Продолжительность : 3 м. 26 с.
Вид битрейта : Переменный
Битрейт : 128 Кбит/сек
Максимальный битрейт : 251 Кбит/сек
Каналы : 2 канала
Расположение каналов : Front: L R
Частота : 44,1 КГц
Метод сжатия : С потерями
Размер потока : 3,15 Мбайт (5%)
Заголовок : (C) 2007 Google Inc. v08.13.2007.
Дата кодирования : UTC 2010-10-07 15:10:29
Дата пометки : UTC 2010-10-07 15:10:30

Общее
Полное имя : E:Armada Music (2012)Markus Schulz feat. Adina Butar - Caught (Official Music Video).mp4
Формат : MPEG-4
Профиль формата : Base Media / Version 2
Идентификатор кодека : mp42
Размер файла : 104 Мбайт
Продолжительность : 4 м. 2 с.
Режим общего битрейта : Переменный
Общий поток : 3608 Кбит/сек
Дата кодирования : UTC 2012-07-08 14:05:35
Дата пометки : UTC 2012-07-08 14:05:35
gsst : 0
gstd : 242996
gssd : B2EE8CF4AMH1357416842888091
gshh : r7---sn-hxb54vo-304e.c.youtube.com

Видео
Идентификатор : 1
Формат : AVC
Формат/Информация : Advanced Video Codec
Профиль формата : High@L4.0
Параметр CABAC формата : Да
Параметр ReFrames формата : 1 кадр
Параметр GOP формата : M=1, N=50
Идентификатор кодека : avc1
Идентификатор кодека/Информация : Advanced Video Coding
Продолжительность : 4 м. 2 с.
Битрейт : 3454 Кбит/сек
Максимальный битрейт : 6309 Кбит/сек
Ширина : 1920 пикселей
Высота : 1080 пикселей
Соотношение сторон : 16:9
Режим частоты кадров : Постоянный
Частота кадров : 25,000 кадров/сек
Цветовое пространство : YUV
Субдискретизация насыщенности : 4:2:0
Битовая глубина : 8 бит
Тип развёртки : Прогрессивная
Бит/(Пиксели*Кадры) : 0.067
Размер потока : 100,0 Мбайт (96%)
Дата пометки : UTC 2012-07-08 14:05:36

Аудио
Идентификатор : 2
Формат : AAC
Формат/Информация : Advanced Audio Codec
Профиль формата : LC
Идентификатор кодека : 40
Продолжительность : 4 м. 2 с.
Вид битрейта : Переменный
Битрейт : 152 Кбит/сек
Максимальный битрейт : 259 Кбит/сек
Каналы : 2 канала
Расположение каналов : Front: L R
Частота : 44,1 КГц
Метод сжатия : С потерями
Размер потока : 4,40 Мбайт (4%)
Заголовок : IsoMedia File Produced by Google, 5-11-2011
Дата кодирования : UTC 2012-07-08 14:05:36
Дата пометки : UTC 2012-07-08 14:05:36

Общее
Полное имя : E:Armada Music (2012)Markus Schulz feat. Ana Diaz - Nothing Without Me (Official Music Video).mp4
Формат : MPEG-4
Профиль формата : Base Media / Version 2
Идентификатор кодека : mp42
Размер файла : 113 Мбайт
Продолжительность : 5 м. 0 с.
Режим общего битрейта : Переменный
Общий поток : 3159 Кбит/сек
Дата кодирования : UTC 2012-12-03 15:54:47
Дата пометки : UTC 2012-12-03 15:54:47
gsst : 0
gstd : 301023
gssd : B2EE8CF49HH1357415137205087
gshh : r6---sn-hxb54vo-304e.c.youtube.com

Видео
Идентификатор : 1
Формат : AVC
Формат/Информация : Advanced Video Codec
Профиль формата : High@L4.0
Параметр CABAC формата : Да
Параметр ReFrames формата : 1 кадр
Идентификатор кодека : avc1
Идентификатор кодека/Информация : Advanced Video Coding
Продолжительность : 5 м. 0 с.
Битрейт : 2964 Кбит/сек
Максимальный битрейт : 6803 Кбит/сек
Ширина : 1920 пикселей
Высота : 1080 пикселей
Соотношение сторон : 16:9
Режим частоты кадров : Постоянный
Частота кадров : 25,000 кадров/сек
Цветовое пространство : YUV
Субдискретизация насыщенности : 4:2:0
Битовая глубина : 8 бит
Тип развёртки : Прогрессивная
Бит/(Пиксели*Кадры) : 0.057
Размер потока : 106 Мбайт (94%)
Дата пометки : UTC 2012-12-03 15:54:47

Аудио
Идентификатор : 2
Формат : AAC
Формат/Информация : Advanced Audio Codec
Профиль формата : LC
Идентификатор кодека : 40
Продолжительность : 5 м. 0 с.
Вид битрейта : Переменный
Битрейт : 192 Кбит/сек
Максимальный битрейт : 202 Кбит/сек
Каналы : 2 канала
Расположение каналов : Front: L R
Частота : 44,1 КГц
Метод сжатия : С потерями
Размер потока : 6,89 Мбайт (6%)
Заголовок : IsoMedia File Produced by Google, 5-11-2011
Дата кодирования : UTC 2012-12-03 15:54:47
Дата пометки : UTC 2012-12-03 15:54:47

Общее
Полное имя : E:Armada Music (2012)Markus Schulz feat. Seri - Love Rain Down (Official Music Video).mp4
Формат : MPEG-4
Профиль формата : Base Media / Version 2
Идентификатор кодека : mp42
Размер файла : 80,3 Мбайт
Продолжительность : 4 м. 4 с.
Режим общего битрейта : Переменный
Общий поток : 2752 Кбит/сек
Дата кодирования : UTC 2012-09-13 14:00:12
Дата пометки : UTC 2012-09-13 14:00:12
gsst : 0
gstd : 244970
gssd : B2EE8CF44MH1357415433221252
gshh : r1---sn-hxb54vo-304e.c.youtube.com

Видео
Идентификатор : 1
Формат : AVC
Формат/Информация : Advanced Video Codec
Профиль формата : High@L4.0
Параметр CABAC формата : Да
Параметр ReFrames формата : 1 кадр
Идентификатор кодека : avc1
Идентификатор кодека/Информация : Advanced Video Coding
Продолжительность : 4 м. 4 с.
Битрейт : 2558 Кбит/сек
Максимальный битрейт : 7034 Кбит/сек
Ширина : 1920 пикселей
Высота : 1080 пикселей
Соотношение сторон : 16:9
Режим частоты кадров : Постоянный
Частота кадров : 25,000 кадров/сек
Цветовое пространство : YUV
Субдискретизация насыщенности : 4:2:0
Битовая глубина : 8 бит
Тип развёртки : Прогрессивная
Бит/(Пиксели*Кадры) : 0.049
Размер потока : 74,6 Мбайт (93%)
Дата пометки : UTC 2012-09-13 14:00:12

Аудио
Идентификатор : 2
Формат : AAC
Формат/Информация : Advanced Audio Codec
Профиль формата : LC
Идентификатор кодека : 40
Продолжительность : 4 м. 4 с.
Вид битрейта : Переменный
Битрейт : 192 Кбит/сек
Максимальный битрейт : 202 Кбит/сек
Каналы : 2 канала
Расположение каналов : Front: L R
Частота : 44,1 КГц
Метод сжатия : С потерями
Размер потока : 5,60 Мбайт (7%)
Заголовок : IsoMedia File Produced by Google, 5-11-2011
Дата кодирования : UTC 2012-09-13 14:00:12
Дата пометки : UTC 2012-09-13 14:00:12

Общее
Полное имя : E:Armada Music (2012)Matt Darey & Stan Kolev feat. Aelyn - Follow You (Official Music Video).mp4
Формат : MPEG-4
Профиль формата : Base Media / Version 2
Идентификатор кодека : mp42
Размер файла : 91,1 Мбайт
Продолжительность : 4 м. 14 с.
Режим общего битрейта : Переменный
Общий поток : 3007 Кбит/сек
Дата кодирования : UTC 2012-04-12 08:46:24
Дата пометки : UTC 2012-04-12 08:46:24
gsst : 0
gstd : 254350
gssd : B2EE8CF48MH1357417415571320
gshh : r5---sn-hxb54vo-304e.c.youtube.com

Видео
Идентификатор : 1
Формат : AVC
Формат/Информация : Advanced Video Codec
Профиль формата : High@L4.0
Параметр CABAC формата : Да
Параметр ReFrames формата : 1 кадр
Идентификатор кодека : avc1
Идентификатор кодека/Информация : Advanced Video Coding
Продолжительность : 4 м. 14 с.
Битрейт : 2853 Кбит/сек
Максимальный битрейт : 5866 Кбит/сек
Ширина : 1920 пикселей
Высота : 1080 пикселей
Соотношение сторон : 16:9
Режим частоты кадров : Постоянный
Частота кадров : 25,000 кадров/сек
Цветовое пространство : YUV
Субдискретизация насыщенности : 4:2:0
Битовая глубина : 8 бит
Тип развёртки : Прогрессивная
Бит/(Пиксели*Кадры) : 0.055
Размер потока : 86,5 Мбайт (95%)
Дата пометки : UTC 2012-04-12 08:46:24

Аудио
Идентификатор : 2
Формат : AAC
Формат/Информация : Advanced Audio Codec
Профиль формата : LC
Идентификатор кодека : 40
Продолжительность : 4 м. 14 с.
Вид битрейта : Переменный
Битрейт : 152 Кбит/сек
Максимальный битрейт : 191 Кбит/сек
Каналы : 2 канала
Расположение каналов : Front: L R
Частота : 44,1 КГц
Метод сжатия : С потерями
Размер потока : 4,61 Мбайт (5%)
Заголовок : IsoMedia File Produced by Google, 5-11-2011
Дата кодирования : UTC 2012-04-12 08:46:24
Дата пометки : UTC 2012-04-12 08:46:24

Общее
Полное имя : E:Armada Music (2012)Matt Darey feat. Leah - Hold Your Breath (KhoMha Remix) (Official Music Video).mp4
Формат : MPEG-4
Профиль формата : Base Media / Version 2
Идентификатор кодека : mp42
Размер файла : 82,8 Мбайт
Продолжительность : 3 м. 45 с.
Режим общего битрейта : Переменный
Общий поток : 3077 Кбит/сек
Дата кодирования : UTC 2012-01-16 10:02:14
Дата пометки : UTC 2012-01-16 10:02:14
gsst : 0
gstd : 225766
gssd : B2EE8CF45MM1357417883605810
gshh : r2---sn-hxb54vo-304e.c.youtube.com

Видео
Идентификатор : 1
Формат : AVC
Формат/Информация : Advanced Video Codec
Профиль формата : High@L4.0
Параметр CABAC формата : Да
Параметр ReFrames формата : 1 кадр
Идентификатор кодека : avc1
Идентификатор кодека/Информация : Advanced Video Coding
Продолжительность : 3 м. 45 с.
Битрейт : 2923 Кбит/сек
Максимальный битрейт : 10,7 Мбит/сек
Ширина : 1920 пикселей
Высота : 1080 пикселей
Соотношение сторон : 16:9
Режим частоты кадров : Постоянный
Частота кадров : 25,000 кадров/сек
Цветовое пространство : YUV
Субдискретизация насыщенности : 4:2:0
Битовая глубина : 8 бит
Тип развёртки : Прогрессивная
Бит/(Пиксели*Кадры) : 0.056
Размер потока : 78,6 Мбайт (95%)
Дата пометки : UTC 2012-01-16 10:02:15

Аудио
Идентификатор : 2
Формат : AAC
Формат/Информация : Advanced Audio Codec
Профиль формата : LC
Идентификатор кодека : 40
Продолжительность : 3 м. 45 с.
Вид битрейта : Переменный
Битрейт : 152 Кбит/сек
Максимальный битрейт : 225 Кбит/сек
Каналы : 2 канала
Расположение каналов : Front: L R
Частота : 44,1 КГц
Метод сжатия : С потерями
Размер потока : 4,09 Мбайт (5%)
Заголовок : IsoMedia File Produced by Google, 5-11-2011
Дата кодирования : UTC 2012-01-16 10:02:14
Дата пометки : UTC 2012-01-16 10:02:15

Общее
Полное имя : E:Armada Music (2012)Paul van Dyk feat. Adam Young - Eternity (Official Music Video).mp4
Формат : MPEG-4
Профиль формата : Base Media / Version 2
Идентификатор кодека : mp42
Размер файла : 104 Мбайт
Продолжительность : 4 м. 23 с.
Режим общего битрейта : Переменный
Общий поток : 3293 Кбит/сек
Дата кодирования : UTC 2012-11-20 15:02:01
Дата пометки : UTC 2012-11-20 15:02:01
gsst : 0
gstd : 264056
gssd : B2EE8CF46HH1357415683595275
gshh : r3---sn-hxb54vo-304e.c.youtube.com

Видео
Идентификатор : 1
Формат : AVC
Формат/Информация : Advanced Video Codec
Профиль формата : High@L4.0
Параметр CABAC формата : Да
Параметр ReFrames формата : 1 кадр
Параметр GOP формата : M=1, N=48
Идентификатор кодека : avc1
Идентификатор кодека/Информация : Advanced Video Coding
Продолжительность : 4 м. 23 с.
Битрейт : 3099 Кбит/сек
Максимальный битрейт : 9154 Кбит/сек
Ширина : 1920 пикселей
Высота : 1080 пикселей
Соотношение сторон : 16:9
Режим частоты кадров : Постоянный
Частота кадров : 23,976 кадра/сек
Цветовое пространство : YUV
Субдискретизация насыщенности : 4:2:0
Битовая глубина : 8 бит
Тип развёртки : Прогрессивная
Бит/(Пиксели*Кадры) : 0.062
Размер потока : 97,5 Мбайт (94%)
Дата пометки : UTC 2012-11-20 15:02:02

Аудио
Идентификатор : 2
Формат : AAC
Формат/Информация : Advanced Audio Codec
Профиль формата : LC
Идентификатор кодека : 40
Продолжительность : 4 м. 23 с.
Вид битрейта : Переменный
Битрейт : 192 Кбит/сек
Максимальный битрейт : 201 Кбит/сек
Каналы : 2 канала
Расположение каналов : Front: L R
Частота : 44,1 КГц
Метод сжатия : С потерями
Размер потока : 6,04 Мбайт (6%)
Заголовок : IsoMedia File Produced by Google, 5-11-2011
Дата кодирования : UTC 2012-11-20 15:02:02
Дата пометки : UTC 2012-11-20 15:02:02

Общее
Полное имя : E:Armada Music (2012)Paul van Dyk feat. Plumb - I Don't Deserve You (Official Music Video).mp4
Формат : MPEG-4
Профиль формата : Base Media / Version 2
Идентификатор кодека : mp42
Размер файла : 79,0 Мбайт
Продолжительность : 3 м. 41 с.
Режим общего битрейта : Переменный
Общий поток : 2988 Кбит/сек
Дата кодирования : UTC 2012-10-08 13:52:58
Дата пометки : UTC 2012-10-08 13:52:58
gsst : 0
gstd : 221981
gssd : B2EE8CF4AHH1357415395674431
gshh : r7---sn-hxb54vo-304e.c.youtube.com

Видео
Идентификатор : 1
Формат : AVC
Формат/Информация : Advanced Video Codec
Профиль формата : High@L4.0
Параметр CABAC формата : Да
Параметр ReFrames формата : 1 кадр
Идентификатор кодека : avc1
Идентификатор кодека/Информация : Advanced Video Coding
Продолжительность : 3 м. 41 с.
Битрейт : 2794 Кбит/сек
Максимальный битрейт : 7674 Кбит/сек
Ширина : 1920 пикселей
Высота : 1080 пикселей
Соотношение сторон : 16:9
Режим частоты кадров : Постоянный
Частота кадров : 23,976 кадра/сек
Цветовое пространство : YUV
Субдискретизация насыщенности : 4:2:0
Битовая глубина : 8 бит
Тип развёртки : Прогрессивная
Бит/(Пиксели*Кадры) : 0.056
Размер потока : 73,9 Мбайт (93%)
Дата пометки : UTC 2012-10-08 13:52:59

Аудио
Идентификатор : 2
Формат : AAC
Формат/Информация : Advanced Audio Codec
Профиль формата : LC
Идентификатор кодека : 40
Продолжительность : 3 м. 41 с.
Вид битрейта : Переменный
Битрейт : 192 Кбит/сек
Максимальный битрейт : 201 Кбит/сек
Каналы : 2 канала
Расположение каналов : Front: L R
Частота : 44,1 КГц
Метод сжатия : С потерями
Размер потока : 5,08 Мбайт (6%)
Заголовок : IsoMedia File Produced by Google, 5-11-2011
Дата кодирования : UTC 2012-10-08 13:52:59
Дата пометки : UTC 2012-10-08 13:52:59

Общее
Полное имя : E:Armada Music (2012)Roger Shah & Sian Kosheen - Shine (Official Music Video).mp4
Формат : MPEG-4
Профиль формата : Base Media / Version 2
Идентификатор кодека : mp42
Размер файла : 140 Мбайт
Продолжительность : 3 м. 45 с.
Режим общего битрейта : Переменный
Общий поток : 5216 Кбит/сек
Дата кодирования : UTC 2012-02-27 13:01:09
Дата пометки : UTC 2012-02-27 13:01:09
gsst : 0
gstd : 225673
gssd : B2EE8CF46MH1357417519322392
gshh : r3---sn-hxb54vo-304e.c.youtube.com

Видео
Идентификатор : 1
Формат : AVC
Формат/Информация : Advanced Video Codec
Профиль формата : High@L4.0
Параметр CABAC формата : Да
Параметр ReFrames формата : 1 кадр
Идентификатор кодека : avc1
Идентификатор кодека/Информация : Advanced Video Coding
Продолжительность : 3 м. 45 с.
Битрейт : 5062 Кбит/сек
Максимальный битрейт : 11,5 Мбит/сек
Ширина : 1920 пикселей
Высота : 1080 пикселей
Соотношение сторон : 16:9
Режим частоты кадров : Постоянный
Частота кадров : 25,000 кадров/сек
Цветовое пространство : YUV
Субдискретизация насыщенности : 4:2:0
Битовая глубина : 8 бит
Тип развёртки : Прогрессивная
Бит/(Пиксели*Кадры) : 0.098
Размер потока : 136 Мбайт (97%)
Дата пометки : UTC 2012-02-27 13:01:09

Аудио
Идентификатор : 2
Формат : AAC
Формат/Информация : Advanced Audio Codec
Профиль формата : LC
Идентификатор кодека : 40
Продолжительность : 3 м. 45 с.
Вид битрейта : Переменный
Битрейт : 152 Кбит/сек
Максимальный битрейт : 174 Кбит/сек
Каналы : 2 канала
Расположение каналов : Front: L R
Частота : 44,1 КГц
Метод сжатия : С потерями
Размер потока : 4,09 Мбайт (3%)
Заголовок : IsoMedia File Produced by Google, 5-11-2011
Дата кодирования : UTC 2012-02-27 13:01:09
Дата пометки : UTC 2012-02-27 13:01:09

Общее
Полное имя : E:Armada Music (2012)Roger Shah feat. Inger Hansen - Dance With Me (Club Mix) [Official Music Video].mp4
Формат : MPEG-4
Профиль формата : Base Media / Version 2
Идентификатор кодека : mp42
Размер файла : 146 Мбайт
Продолжительность : 4 м. 30 с.
Режим общего битрейта : Переменный
Общий поток : 4514 Кбит/сек
Дата кодирования : UTC 2012-05-30 10:26:20
Дата пометки : UTC 2012-05-30 10:26:20
gsst : 0
gstd : 270930
gssd : B2EE8CF46MM1357417103199273
gshh : r3---sn-hxb54vo-304e.c.youtube.com

Видео
Идентификатор : 1
Формат : AVC
Формат/Информация : Advanced Video Codec
Профиль формата : High@L4.0
Параметр CABAC формата : Да
Параметр ReFrames формата : 1 кадр
Идентификатор кодека : avc1
Идентификатор кодека/Информация : Advanced Video Coding
Продолжительность : 4 м. 30 с.
Битрейт : 4360 Кбит/сек
Максимальный битрейт : 11,9 Мбит/сек
Ширина : 1920 пикселей
Высота : 1080 пикселей
Соотношение сторон : 16:9
Режим частоты кадров : Постоянный
Частота кадров : 25,000 кадров/сек
Цветовое пространство : YUV
Субдискретизация насыщенности : 4:2:0
Битовая глубина : 8 бит
Тип развёртки : Прогрессивная
Бит/(Пиксели*Кадры) : 0.084
Размер потока : 141 Мбайт (97%)
Дата пометки : UTC 2012-05-30 10:26:20

Аудио
Идентификатор : 2
Формат : AAC
Формат/Информация : Advanced Audio Codec
Профиль формата : LC
Идентификатор кодека : 40
Продолжительность : 4 м. 30 с.
Вид битрейта : Переменный
Битрейт : 152 Кбит/сек
Максимальный битрейт : 204 Кбит/сек
Каналы : 2 канала
Расположение каналов : Front: L R
Частота : 44,1 КГц
Метод сжатия : С потерями
Размер потока : 4,91 Мбайт (3%)
Заголовок : IsoMedia File Produced by Google, 5-11-2011
Дата кодирования : UTC 2012-05-30 10:26:20
Дата пометки : UTC 2012-05-30 10:26:20

Общее
Полное имя : E:Armada Music (2012)Roger Shah feat. Inger Hansen - Dance With Me (Official Music Video).mp4
Формат : MPEG-4
Профиль формата : Base Media / Version 2
Идентификатор кодека : mp42
Размер файла : 145 Мбайт
Продолжительность : 4 м. 28 с.
Режим общего битрейта : Переменный
Общий поток : 4530 Кбит/сек
Дата кодирования : UTC 2012-05-13 15:23:59
Дата пометки : UTC 2012-05-13 15:23:59
gsst : 0
gstd : 268910
gssd : B2EE8CF49HH1357417251696935
gshh : r6---sn-hxb54vo-304e.c.youtube.com

Видео
Идентификатор : 1
Формат : AVC
Формат/Информация : Advanced Video Codec
Профиль формата : High@L4.0
Параметр CABAC формата : Да
Параметр ReFrames формата : 1 кадр
Идентификатор кодека : avc1
Идентификатор кодека/Информация : Advanced Video Coding
Продолжительность : 4 м. 28 с.
Битрейт : 4376 Кбит/сек
Максимальный битрейт : 11,3 Мбит/сек
Ширина : 1920 пикселей
Высота : 1080 пикселей
Соотношение сторон : 16:9
Режим частоты кадров : Постоянный
Частота кадров : 25,000 кадров/сек
Цветовое пространство : YUV
Субдискретизация насыщенности : 4:2:0
Битовая глубина : 8 бит
Тип развёртки : Прогрессивная
Бит/(Пиксели*Кадры) : 0.084
Размер потока : 140 Мбайт (97%)
Дата пометки : UTC 2012-05-13 15:24:00

Аудио
Идентификатор : 2
Формат : AAC
Формат/Информация : Advanced Audio Codec
Профиль формата : LC
Идентификатор кодека : 40
Продолжительность : 4 м. 28 с.
Вид битрейта : Переменный
Битрейт : 152 Кбит/сек
Максимальный битрейт : 207 Кбит/сек
Каналы : 2 канала
Расположение каналов : Front: L R
Частота : 44,1 КГц
Метод сжатия : С потерями
Размер потока : 4,87 Мбайт (3%)
Заголовок : IsoMedia File Produced by Google, 5-11-2011
Дата кодирования : UTC 2012-05-13 15:24:00
Дата пометки : UTC 2012-05-13 15:24:00

Общее
Полное имя : E:Armada Music (2012)Sunlounger & Zara Taylor - Try To Be Love (Official Music Video).mp4
Формат : MPEG-4
Профиль формата : Base Media / Version 2
Идентификатор кодека : mp42
Размер файла : 130 Мбайт
Продолжительность : 5 м. 6 с.
Режим общего битрейта : Переменный
Общий поток : 3571 Кбит/сек
Дата кодирования : UTC 2012-05-23 10:33:50
Дата пометки : UTC 2012-05-23 10:33:50
gsst : 0
gstd : 306155
gssd : B2EE8CF45HH1357417159705809
gshh : r2---sn-hxb54vo-304e.c.youtube.com

Видео
Идентификатор : 1
Формат : AVC
Формат/Информация : Advanced Video Codec
Профиль формата : High@L4.0
Параметр CABAC формата : Да
Параметр ReFrames формата : 1 кадр
Идентификатор кодека : avc1
Идентификатор кодека/Информация : Advanced Video Coding
Продолжительность : 5 м. 6 с.
Битрейт : 3416 Кбит/сек
Максимальный битрейт : 10,2 Мбит/сек
Ширина : 1920 пикселей
Высота : 1080 пикселей
Соотношение сторон : 16:9
Режим частоты кадров : Постоянный
Частота кадров : 25,000 кадров/сек
Цветовое пространство : YUV
Субдискретизация насыщенности : 4:2:0
Битовая глубина : 8 бит
Тип развёртки : Прогрессивная
Бит/(Пиксели*Кадры) : 0.066
Размер потока : 125 Мбайт (96%)
Дата пометки : UTC 2012-05-23 10:33:51

Аудио
Идентификатор : 2
Формат : AAC
Формат/Информация : Advanced Audio Codec
Профиль формата : LC
Идентификатор кодека : 40
Продолжительность : 5 м. 6 с.
Вид битрейта : Переменный
Битрейт : 152 Кбит/сек
Максимальный битрейт : 182 Кбит/сек
Каналы : 2 канала
Расположение каналов : Front: L R
Частота : 44,1 КГц
Метод сжатия : С потерями
Размер потока : 5,54 Мбайт (4%)
Заголовок : IsoMedia File Produced by Google, 5-11-2011
Дата кодирования : UTC 2012-05-23 10:33:50
Дата пометки : UTC 2012-05-23 10:33:51

Общее
Полное имя : E:Armada Music (2012)Susana & Max Graham - Down To Nothing (Official Music Video).mp4
Формат : MPEG-4
Профиль формата : Base Media / Version 2
Идентификатор кодека : mp42
Размер файла : 89,6 Мбайт
Продолжительность : 4 м. 19 с.
Режим общего битрейта : Переменный
Общий поток : 2897 Кбит/сек
Дата кодирования : UTC 2012-06-20 10:10:15
Дата пометки : UTC 2012-06-20 10:10:15
gsst : 0
gstd : 259691
gssd : B2EE8CF4AMH1357416954735203
gshh : r7---sn-hxb54vo-304e.c.youtube.com

Видео
Идентификатор : 1
Формат : AVC
Формат/Информация : Advanced Video Codec
Профиль формата : High@L4.0
Параметр CABAC формата : Да
Параметр ReFrames формата : 1 кадр
Идентификатор кодека : avc1
Идентификатор кодека/Информация : Advanced Video Coding
Продолжительность : 4 м. 19 с.
Битрейт : 2742 Кбит/сек
Максимальный битрейт : 8818 Кбит/сек
Ширина : 1920 пикселей
Высота : 1080 пикселей
Соотношение сторон : 16:9
Режим частоты кадров : Постоянный
Частота кадров : 25,000 кадров/сек
Цветовое пространство : YUV
Субдискретизация насыщенности : 4:2:0
Битовая глубина : 8 бит
Тип развёртки : Прогрессивная
Бит/(Пиксели*Кадры) : 0.053
Размер потока : 84,9 Мбайт (95%)
Дата пометки : UTC 2012-06-20 10:10:15

Аудио
Идентификатор : 2
Формат : AAC
Формат/Информация : Advanced Audio Codec
Профиль формата : LC
Идентификатор кодека : 40
Продолжительность : 4 м. 19 с.
Вид битрейта : Переменный
Битрейт : 152 Кбит/сек
Максимальный битрейт : 252 Кбит/сек
Каналы : 2 канала
Расположение каналов : Front: L R
Частота : 44,1 КГц
Метод сжатия : С потерями
Размер потока : 4,70 Мбайт (5%)
Заголовок : IsoMedia File Produced by Google, 5-11-2011
Дата кодирования : UTC 2012-06-20 10:10:15
Дата пометки : UTC 2012-06-20 10:10:15

Общее
Полное имя : E:Armada Music (2012)Susana & Rex Mundi - All Time Low (Official Music Video).mp4
Формат : MPEG-4
Профиль формата : Base Media / Version 2
Идентификатор кодека : mp42
Размер файла : 112 Мбайт
Продолжительность : 3 м. 55 с.
Режим общего битрейта : Переменный
Общий поток : 4000 Кбит/сек
Дата кодирования : UTC 2013-01-01 12:44:27
Дата пометки : UTC 2013-01-01 12:44:27
gsst : 0
gstd : 235403
gssd : B2EE8CF45HH1357415529294148
gshh : r2---sn-hxb54vo-304e.c.youtube.com

Видео
Идентификатор : 1
Формат : AVC
Формат/Информация : Advanced Video Codec
Профиль формата : High@L4.0
Параметр CABAC формата : Да
Параметр ReFrames формата : 1 кадр
Идентификатор кодека : avc1
Идентификатор кодека/Информация : Advanced Video Coding
Продолжительность : 3 м. 55 с.
Битрейт : 3805 Кбит/сек
Максимальный битрейт : 11,1 Мбит/сек
Ширина : 1920 пикселей
Высота : 1080 пикселей
Соотношение сторон : 16:9
Режим частоты кадров : Постоянный
Частота кадров : 30,000 кадров/сек
Цветовое пространство : YUV
Субдискретизация насыщенности : 4:2:0
Битовая глубина : 8 бит
Тип развёртки : Прогрессивная
Бит/(Пиксели*Кадры) : 0.061
Размер потока : 107 Мбайт (95%)
Дата пометки : UTC 2013-01-01 12:44:27

Аудио
Идентификатор : 2
Формат : AAC
Формат/Информация : Advanced Audio Codec
Профиль формата : LC
Идентификатор кодека : 40
Продолжительность : 3 м. 55 с.
Вид битрейта : Переменный
Битрейт : 192 Кбит/сек
Максимальный битрейт : 202 Кбит/сек
Каналы : 2 канала
Расположение каналов : Front: L R
Частота : 44,1 КГц
Метод сжатия : С потерями
Размер потока : 5,38 Мбайт (5%)
Заголовок : IsoMedia File Produced by Google, 5-11-2011
Дата кодирования : UTC 2013-01-01 12:44:27
Дата пометки : UTC 2013-01-01 12:44:27

Общее
Полное имя : E:Armada Music (2012)tyDi feat. Christina Novelli - Fire & Load (Official Music Video).mp4
Формат : MPEG-4
Профиль формата : Base Media / Version 2
Идентификатор кодека : mp42
Размер файла : 74,8 Мбайт
Продолжительность : 3 м. 45 с.
Режим общего битрейта : Переменный
Общий поток : 2778 Кбит/сек
Дата кодирования : UTC 2012-12-16 11:08:16
Дата пометки : UTC 2012-12-16 11:08:16
gsst : 0
gstd : 225998
gssd : B2EE8CF4AHH1357415095685955
gshh : r7---sn-hxb54vo-304e.c.youtube.com

Видео
Идентификатор : 1
Формат : AVC
Формат/Информация : Advanced Video Codec
Профиль формата : High@L4.0
Параметр CABAC формата : Да
Параметр ReFrames формата : 1 кадр
Идентификатор кодека : avc1
Идентификатор кодека/Информация : Advanced Video Coding
Продолжительность : 3 м. 45 с.
Битрейт : 2584 Кбит/сек
Максимальный битрейт : 5137 Кбит/сек
Ширина : 1920 пикселей
Высота : 1080 пикселей
Соотношение сторон : 16:9
Режим частоты кадров : Постоянный
Частота кадров : 25,000 кадров/сек
Цветовое пространство : YUV
Субдискретизация насыщенности : 4:2:0
Битовая глубина : 8 бит
Тип развёртки : Прогрессивная
Бит/(Пиксели*Кадры) : 0.050
Размер потока : 69,6 Мбайт (93%)
Дата пометки : UTC 2012-12-16 11:08:16

Аудио
Идентификатор : 2
Формат : AAC
Формат/Информация : Advanced Audio Codec
Профиль формата : LC
Идентификатор кодека : 40
Продолжительность : 3 м. 45 с.
Вид битрейта : Переменный
Битрейт : 192 Кбит/сек
Максимальный битрейт : 202 Кбит/сек
Каналы : 2 канала
Расположение каналов : Front: L R
Частота : 44,1 КГц
Метод сжатия : С потерями
Размер потока : 5,17 Мбайт (7%)
Заголовок : IsoMedia File Produced by Google, 5-11-2011
Дата кодирования : UTC 2012-12-16 11:08:16
Дата пометки : UTC 2012-12-16 11:08:16

Общее
Полное имя : E:Armada Music (2012)W&W - Moscow (Official Music Video).mp4
Формат : MPEG-4
Профиль формата : Base Media / Version 2
Идентификатор кодека : mp42
Размер файла : 90,6 Мбайт
Продолжительность : 2 м. 58 с.
Режим общего битрейта : Переменный
Общий поток : 4270 Кбит/сек
Дата кодирования : UTC 2012-07-25 15:51:04
Дата пометки : UTC 2012-07-25 15:51:04
gsst : 0
gstd : 178143
gssd : B2EE8CF49HH1357416658476574
gshh : r6---sn-hxb54vo-304e.c.youtube.com

Видео
Идентификатор : 1
Формат : AVC
Формат/Информация : Advanced Video Codec
Профиль формата : High@L4.0
Параметр CABAC формата : Да
Параметр ReFrames формата : 1 кадр
Параметр GOP формата : M=1, N=50
Идентификатор кодека : avc1
Идентификатор кодека/Информация : Advanced Video Coding
Продолжительность : 2 м. 58 с.
Битрейт : 4075 Кбит/сек
Максимальный битрейт : 12,8 Мбит/сек
Ширина : 1920 пикселей
Высота : 1080 пикселей
Соотношение сторон : 16:9
Режим частоты кадров : Постоянный
Частота кадров : 25,000 кадров/сек
Цветовое пространство : YUV
Субдискретизация насыщенности : 4:2:0
Битовая глубина : 8 бит
Тип развёртки : Прогрессивная
Бит/(Пиксели*Кадры) : 0.079
Размер потока : 86,5 Мбайт (95%)
Дата пометки : UTC 2012-07-25 15:51:04

Аудио
Идентификатор : 2
Формат : AAC
Формат/Информация : Advanced Audio Codec
Профиль формата : LC
Идентификатор кодека : 40
Продолжительность : 2 м. 57 с.
Вид битрейта : Переменный
Битрейт : 192 Кбит/сек
Максимальный битрейт : 202 Кбит/сек
Каналы : 2 канала
Расположение каналов : Front: L R
Частота : 44,1 КГц
Метод сжатия : С потерями
Размер потока : 4,07 Мбайт (4%)
Заголовок : IsoMedia File Produced by Google, 5-11-2011
Дата кодирования : UTC 2012-07-25 15:51:04
Дата пометки : UTC 2012-07-25 15:51:04

Общее
Полное имя : E:Armada Music (2012)W&W feat. Bree - Nowhere To Go (Official Music Video).mp4
Формат : MPEG-4
Профиль формата : Base Media / Version 2
Идентификатор кодека : mp42
Размер файла : 39,3 Мбайт
Продолжительность : 3 м. 31 с.
Режим общего битрейта : Переменный
Общий поток : 1562 Кбит/сек
Дата кодирования : UTC 2011-12-18 13:30:00
Дата пометки : UTC 2011-12-18 13:30:00
gsst : 0
gstd : 211138
gssd : B2EE8CF46MH1357418016477065
gshh : r3---sn-hxb54vo-304e.c.youtube.com

Видео
Идентификатор : 1
Формат : AVC
Формат/Информация : Advanced Video Codec
Профиль формата : High@L3.1
Параметр CABAC формата : Да
Параметр ReFrames формата : 1 кадр
Идентификатор кодека : avc1
Идентификатор кодека/Информация : Advanced Video Coding
Продолжительность : 3 м. 31 с.
Битрейт : 1407 Кбит/сек
Максимальный битрейт : 3669 Кбит/сек
Ширина : 1280 пикселей
Высота : 720 пикселей
Соотношение сторон : 16:9
Режим частоты кадров : Постоянный
Частота кадров : 25,000 кадров/сек
Цветовое пространство : YUV
Субдискретизация насыщенности : 4:2:0
Битовая глубина : 8 бит
Тип развёртки : Прогрессивная
Бит/(Пиксели*Кадры) : 0.061
Размер потока : 35,4 Мбайт (90%)
Дата пометки : UTC 2011-12-18 13:30:01

Аудио
Идентификатор : 2
Формат : AAC
Формат/Информация : Advanced Audio Codec
Профиль формата : LC
Идентификатор кодека : 40
Продолжительность : 3 м. 31 с.
Вид битрейта : Переменный
Битрейт : 152 Кбит/сек
Максимальный битрейт : 209 Кбит/сек
Каналы : 2 канала
Расположение каналов : Front: L R
Частота : 44,1 КГц
Метод сжатия : С потерями
Размер потока : 3,82 Мбайт (10%)
Заголовок : IsoMedia File Produced by Google, 5-11-2011
Дата кодирования : UTC 2011-12-18 13:30:00
Дата пометки : UTC 2011-12-18 13:30:01



pb.wtf



Скачать Подборка клипов через торрент https://pic1.kartinco.top/images/21/7oapa7nsjj.jpg Скачать, смотреть онлайн Подборка клипов бесплантно в хорошем качестве Треклист:Alex M.O.R.P.H. feat. Sylvia Tosun - An Angel's Love (Official Music Video)Aly & Fila meets Roger Shah feat Adrina Thorpe - ... 9.8 10 33
Info! Золотая раздача, скачанное не засчитывается.
Торрент: Зарегистрирован [2013-04-08 13:50] · скачан: 605 раз
Статус: √ проверено
Размер: 4.39 GB
Как cкачать? Как скачать Подборка клипов через торрент | UTorrent

28-11-2019 20:33  

Отключить всю рекламу на сайте

    Дорогой пользователь! Огромная просьба, поблагодарите релизера, оцените раздачу и оставьте свои комментарий, если Вы скачали Подборка клипов через торрент бесплатно!
    Комментировать посты могут только пользователи прошедшие не сложную регистрацию
    Показать сообщения:    

    Подборка клипов через торрент
    Скачать бесплатно Подборка клипов
    Подборка клипов скачать торрент
    Подборка клипов смотреть онлайн
    Cкачать фильм Подборка клипов бесплатно
    Подборка клипов скачать торрент в хорошем качестве
    Подборка клипов смотреть онлайн бесплатно в хорошем качестве


    Вы не можете начинать темы
    Вы не можете отвечать на сообщения
    Вы не можете редактировать свои сообщения
    Вы не можете удалять свои сообщения
    Вы не можете голосовать в опросах
    Вы не можете прикреплять файлы к сообщениям
    Вы можете скачивать файлы