Мега распродажа FORZA HORIZON 4 ULTIMATE+ВСЕ DLC+ОНЛАЙН всего за 499р. 349 руб. (супер цена). Внимание количество ограничено!!!

Лицензия

30

iTunes

мы

iTunes

1

1 сезон

Чернобыль

1 сезон

Ральф против интернета

MVO

Покемон. Детектив Пикачу

8 сезон

Игра престолов

iTunes

1+1

ИГРА 18+

pack

ВАЖНО

!!Акция!!

Alien_RageХит недели

RePack

Resident Evil 21
pack

RePack

Metro:Exodus

!!Акция!!

Alien_Rage

RePack

fifa19

RePack

Assassins Creed: Odyssey

RePack

NEED FOR SPEED™ PAYBACK

3 сезон

9 сезон

Бесстыжие 9 сезон

Все сериалы

все сериалы на PB.wtf

RePack

FAR CRY 5
Ребята, катастрофически не хватает 2730р. для оплаты серверов за МАЙ (всвязи с блокировками трафик упал в 3 раза), 1-2р., выручайте.
  

Ведьмина гора / Race to Witch Mountain [x264] (Энди Фикмен) [2009 г., фантастика, триллер, комедия, приключения, семейный, HDRip, Дубляж, лицензия] pb.wtf

Ведьмина гора через торрент pb.wtf

Размер: 1.37 GB | Добавлен: 6 лет 2 мес. назад | Торрент скачан:597 раз
Скачать  

08-04-2013 13:54 Ведьмина гора Скачать торрент  

Ведьмина гора / Race to Witch Mountain
Год выпуска: 2009
Страна: США
Жанр: фантастика, триллер, комедия, приключения, семейный,
Продолжительность: 98 мин. / 01:38
Перевод: Дубляж, Лицензия

Режиссер: Энди Фикмен
Продюссер: Эндрю Ганн, Марио Искович, Энн Мари Сандерлин
Сценарий: Мэтт Лопез, Марк Бомбэк, Александр Ки

Мировой рейтинг IMDB 5.70 (26 355)


В ролях: Дуэйн Джонсон, Анна-София Робб, Александр Людвиг, Карла Гуджино, Киаран Хайндс, Том Эверетт Скотт, Крис Маркетт, Билли Браун, Гэрри Маршалл, Ким Ричардс, Валерий Соловьев, Аделина Червякова, Артем Сергеев, Елена Шульман, Юрий Лазарев,

Описание: В жизни Джека Бруно, таксиста-неудачника из Лас-Вегаса, всё перевернулось с ног на голову в тот момент, когда к нему в такси, спасаясь от погони, запрыгнули Сэт и Сара. Вскоре он поймёт, что его пассажиры — дети с необычными паранормальными способностями, которых ему предстоит защитить от безжалостных преследователей.

Релиз от :
Качество: HDRip
Формат: MKV
Видео кодек: H.264
Аудио кодек: AC3
Видео: AVC/x264, 720x304 (2.35:1), 23.976 fps, 1 604 Kbps (0.306 bit/pixel)
Аудио#1: AC-3, 48.0 KHz, 6 ch, 384 Kbps, CBR
Релиз от: xGhost




General
Unique ID : 173608995106316441453919039980612657656 (0x829BE0508B966B02913635537C60A1F8)
Complete name : C:UsersxGhostDesktopВедьмина гора.D.HDRip.Rus.x264.1400MB.mkv
Format : Matroska
Format version : Version 2
File size : 1.37 GiB
Duration : 1h 38mn
Overall bit rate : 1 990 Kbps
Encoded date : UTC 2013-04-08 13:14:13
Writing application : mkvmerge v4.0.0 ('The Stars were mine')
Writing library : libebml v1.0.0 + libmatroska v1.0.0

Video
ID : 1
Format : AVC
Format/Info : Advanced Video Codec
Format profile : High@L4.1
Format settings, CABAC : Yes
Format settings, ReFrames : 12 frames
Codec ID : V_MPEG4/ISO/AVC
Duration : 1h 38mn
Bit rate : 1 604 Kbps
Width : 720 pixels
Height : 304 pixels
Display aspect ratio : 2.35:1
Frame rate mode : Constant
Frame rate : 23.976 fps
Color space : YUV
Chroma subsampling : 4:2:0
Bit depth : 8 bits
Scan type : Progressive
Bits/(Pixel*Frame) : 0.306
Stream size : 1.08 GiB (79%)
Writing library : x264 core 130 r2273 b3065e6
Encoding settings : cabac=1 / ref=12 / deblock=1:-3:-3 / analyse=0x3:0x113 / me=hex / subme=7 / psy=1 / psy_rd=1.00:0.15 / mixed_ref=1 / me_range=32 / chroma_me=1 / trellis=1 / 8x8dct=1 / cqm=0 / deadzone=21,11 / fast_pskip=1 / chroma_qp_offset=-2 / threads=6 / lookahead_threads=1 / sliced_threads=0 / nr=0 / decimate=1 / interlaced=0 / bluray_compat=0 / constrained_intra=0 / bframes=3 / b_pyramid=2 / b_adapt=1 / b_bias=0 / direct=1 / weightb=1 / open_gop=0 / weightp=2 / keyint=240 / keyint_min=22 / scenecut=40 / intra_refresh=0 / rc_lookahead=40 / rc=2pass / mbtree=1 / bitrate=1604 / ratetol=1.0 / qcomp=0.60 / qpmin=10 / qpmax=51 / qpstep=4 / cplxblur=20.0 / qblur=0.5 / vbv_maxrate=50000 / vbv_bufsize=62500 / nal_hrd=none / ip_ratio=1.40 / aq=1:1.00
Default : No
Forced : No

Audio
ID : 2
Format : AC-3
Format/Info : Audio Coding 3
Mode extension : CM (complete main)
Format settings, Endianness : Big
Codec ID : A_AC3
Duration : 1h 38mn
Bit rate mode : Constant
Bit rate : 384 Kbps
Channel(s) : 6 channels
Channel positions : Front: L C R, Side: L R, LFE
Sampling rate : 48.0 KHz
Bit depth : 16 bits
Compression mode : Lossy
Stream size : 270 MiB (19%)
Default : Yes
Forced : No



Ведьмина гора скачать торрент


pb.wtf



Скачать Ведьмина гора через торрент http://i39.fastpic.ru/big/2012/0615/f7/3204b4004de2f66b1fb412c556555bf7.jpg Скачать фильм Ведьмина гора через торрент бесплантно в хорошем качестве Описание: В жизни Джека Бруно, таксиста-неудачника из Лас-Вегаса, всё перевернулось с ног на голову в тот момент, когда к нему в такси, ... 9.4 10 28
Info! Золотая раздача, скачанное не засчитывается.
Торрент: Зарегистрирован [2013-04-08 13:54] · скачан: 597 раз
Статус: √ проверено
Размер: 1.37 GB
Как cкачать? Как скачать Ведьмина гора через торрент | qTorrent

% Раздел Тема Автор DL S | L
Фильмы (HD 720p, 1080p) (48-60 fps) [ 4.73 GB ] Ведьмина гора / Race to Witch Mountain [2009 BDRip 720p 60fps от еnvy / NNNB] DUB еnvy Скачать
25 | 1
Фильмы 2009 [ 2.19 GB ] Ведьмина гора / Race to Witch Mountain [2009 BDRip DUB + DUB + Оригинал] bogyn Скачать
1 | 0
Фильмы [HD 720p, 1080p] (Хороший звук DUB, MVO) [ 5.25 GB ] Ведьмина гора / Race to Witch Mountain [2009 BDRip 720p DUB лицензия] VintMosina Скачать
1 | 0
Фильмы 2009 [ 2.05 GB ] Ведьмина гора / Race to Witch Mountain [2009 HDRip] coc900 Скачать
1 | 0
Фильмы 2009 [ 1.37 GB ] Ведьмина гора / Race to Witch Mountain [2009 BDRip] DUB + original + subs paul08 Скачать
1 | 0
Фильмы (DVD фильмы) [ 4.33 GB ] Ведьмина гора / Race to Witch Mountain [2009 ... DVD5 ] amv77 Скачать
1 | 0
Фильмы 2009 [ 1.99 GB ] Ведьмина гора / Race to Witch Mountain [2009 HDTVRip] valentynas Скачать
1 | 0


>> Регистрируемся здесь <<






Отзывы и комментарии о схеме читаем и пишем здесь: ---> Отзывы и комментарии о схеме

Новые благодарочки в телеграм довольных пользователей:
скриншот   скриншот   скриншот   скриншот   скриншот

08-04-2013 16:49 Ведьмина гора Скачать торрент  

спс :good:pb.wtf



08-04-2013 18:41 Ведьмина гора Скачать торрент  

О, спасибо, давно еще хотел посмотреть))pb.wtf



09-04-2013 08:27 Ведьмина гора Скачать торрент  

Спасибо!!!pb.wtf



    Дорогой пользователь! Огромная просьба, поблагодарите релизера, оцените раздачу и оставьте свои комментарий, если Вы скачали Ведьмина гора через торрент бесплатно! Внесите свою лепту в развитие PiratBit!
    Комментировать посты могут только пользователи прошедшие не сложную регистрацию
    Показать сообщения:    

    Ведьмина гора через торрент
    Скачать бесплатно Ведьмина гора
    Ведьмина гора скачать торрент
    Ведьмина гора смотреть онлайн
    Cкачать фильм Ведьмина гора бесплатно
    Ведьмина гора скачать торрент в хорошем качестве
    Ведьмина гора смотреть онлайн бесплатно в хорошем качестве


    Вы не можете начинать темы
    Вы не можете отвечать на сообщения
    Вы не можете редактировать свои сообщения
    Вы не можете удалять свои сообщения
    Вы не можете голосовать в опросах
    Вы не можете прикреплять файлы к сообщениям
    Вы можете скачивать файлы