1 сезон

1 сезон

iTunes

1

КиноПоиск HD

Кинопоиск HD

iTunes

13

1 сезон

RePack

30

Новинка

ВАЖНО

ИГРА 18+

pack

RePack

MK11
pack

Легкие деньги

RePack

jed

RePack

fifa19

RePack

RDR2

RePack

NEED FOR SPEED™ PAYBACK

4 сезон

9 сезон

Бесстыжие 9 сезон

Все сериалы

все сериалы на PB.wtf

RePack

FAR CRY 5
  
Magnet ссылка

Шестизарядный / Six Shooter (Мартин МакДона) [2004 г., короткометражка, драма, DVDRip] VO (NewStudio) pb.wtf

Шестизарядный через торрент pb.wtf

Размер: 271 MB | Добавлен: 8 лет назад | Торрент скачан:78 раз
Скачать  

08-04-2013 14:11 Шестизарядный Скачать торрент  

Шестизарядный / Six Shooter

Год выпуска: 2004
Страна: Великобритания, Ирландия
Жанр: короткометражка, драма,
Продолжительность: 27 минут
Перевод: Профессиональный (одноголосый, закадровый) [NewStudio]
Режиссер: Мартин МакДона
Продюссер: Кентон Аллен, Миа Бэйз
Сценарий: Мартин МакДона
В ролях: Брендан Глисон, Руайдри Конрой, Дэвид Уилмот, Эшлинг О’Салливан, Гари Лайдон, Домналл Глисон, Дэвид Мюррэй, Дэвид Пирс, Энн МакФарлэйн,
Описание: День у мистера Доннели как-то не задался. В больнице сообщили, что утром умерла любимая жена, сосед в поезде оказался наглым малолетним матершинником, в вагоне-ресторане нахамили. Ну как тут не потерять веру в Бога?
Внимание! Фильм содержит ненормативную лексику!
Качество: DVDRip
Формат: AVI
Видео кодек: XviD
Аудио кодек: MP3
Видео: 640x352 (1.82:1), 23.976 fps, XviD MPEG-4 ~1060 kbps avg, 0.20 bit/pixel
Аудио(Rus): 48 kHz, MPEG Layer 3, 2 ch, ~192.00 kbps avg
Аудио(Eng): 48 kHz, MPEG Layer 3, 2 ch, ~130.54 kbps avg

Релиз от:
Общее
Полное имя : D:Шестизарядный.avi
Формат : AVI
Формат/Информация : Audio Video Interleave
Размер файла : 271 Мбайт
Продолжительность : 27 м.
Режим общего битрейта : Переменный
Общий поток : 1402 Кбит/сек
Программа кодирования : VirtualDubMod 1.5.10.2 (build 2540/release)
Библиотека кодирования : VirtualDubMod build 2540/release

Видео
Идентификатор : 0
Формат : MPEG-4 Visual
Профиль формата : Advanced Simple@L5
Параметр BVOP формата : 2
Параметр QPel формата : Нет
Параметр GMC формата : Без точки перехода
Параметр матрицы формата : Default (H.263)
Режим смешивания : Сжатый битовый поток
Идентификатор кодека : XVID
Идентификатор кодека/Подсказка : XviD
Продолжительность : 27 м.
Битрейт : 1062 Кбит/сек
Ширина : 640 пикселей
Высота : 352 пикселя
Соотношение сторон : 16:9
Частота кадров : 23,976 кадра/сек
Цветовое пространство : YUV
Субдискретизация насыщенности : 4:2:0
Битовая глубина : 8 бит
Тип развёртки : Прогрессивная
Метод сжатия : С потерями
Бит/(Пиксели*Кадры) : 0.197
Размер потока : 206 Мбайт (76%)
Библиотека кодирования : XviD 1.1.0 RC (UTC 2005-11-22)

Аудио #1
Идентификатор : 1
Формат : MPEG Audio
Версия формата : Version 1
Профиль формата : Layer 3
Идентификатор кодека : 55
Идентификатор кодека/Подсказка : MP3
Продолжительность : 27 м.
Вид битрейта : Постоянный
Битрейт : 192 Кбит/сек
Каналы : 2 канала
Частота : 48,0 КГц
Метод сжатия : С потерями
Размер потока : 37,2 Мбайт (14%)
Выравнивание : Соединение по промежуткам
Продолжительность промежутка : 42 мс. (1,00 видеокадр)
Время предзагрузки промежутка : 504 мс.

Аудио #2
Идентификатор : 2
Формат : MPEG Audio
Версия формата : Version 1
Профиль формата : Layer 3
Режим : Joint stereo
Расширение режима : MS Stereo
Идентификатор кодека : 55
Идентификатор кодека/Подсказка : MP3
Продолжительность : 27 м.
Вид битрейта : Переменный
Битрейт : 128 Кбит/сек
Каналы : 2 канала
Частота : 48,0 КГц
Метод сжатия : С потерями
Размер потока : 25,3 Мбайт (9%)
Выравнивание : Соединение по промежуткам
Продолжительность промежутка : 24 мс. (0,58 видеокадр)
Время предзагрузки промежутка : 514 мс.
Библиотека кодирования : LAME3.93

Скриншотыскриншот   скриншот   скриншот   скриншот  pb.wtf



Скачать Шестизарядный через торрент https://pic.kartinco.top/images/2/w8pvxbynn4.jpg Скачать фильм Шестизарядный через торрент бесплантно в хорошем качестве Описание: День у мистера Доннели как-то не задался. В больнице сообщили, что утром умерла любимая жена, сосед в поезде оказался наглым ... 9.8 10 12
Info! Золотая раздача, скачанное не засчитывается.
Торрент: Зарегистрирован [2013-04-08 14:11] · скачан: 78 раз
Статус: √ проверено
Размер: 271 MB
Как cкачать? Как скачать Шестизарядный через торрент | UTorrent

28-11-2019 20:33  

Отключить всю рекламу на сайте

08-04-2013 16:41 Шестизарядный Скачать торрент  

Хорошая короткометражка, стоит глянутьpb.wtf



11-05-2013 19:59 Шестизарядный Скачать торрент  

Бред и чушь, никакого смысла, лишь тупейший фарш....
з.ы. сравнение этого убожества на "кинопоиске" с "с меня хватит" оскорбило до глубины души! :ireful: pb.wtf



    Дорогой пользователь! Огромная просьба, поблагодарите релизера, оцените раздачу и оставьте свои комментарий, если Вы скачали Шестизарядный через торрент бесплатно! Внесите свою лепту в развитие PiratBit!
    Комментировать посты могут только пользователи прошедшие не сложную регистрацию
    Показать сообщения:    

    Шестизарядный через торрент
    Скачать бесплатно Шестизарядный
    Шестизарядный скачать торрент
    Шестизарядный смотреть онлайн
    Cкачать фильм Шестизарядный бесплатно
    Шестизарядный скачать торрент в хорошем качестве
    Шестизарядный смотреть онлайн бесплатно в хорошем качестве


    Вы не можете начинать темы
    Вы не можете отвечать на сообщения
    Вы не можете редактировать свои сообщения
    Вы не можете удалять свои сообщения
    Вы не можете голосовать в опросах
    Вы не можете прикреплять файлы к сообщениям
    Вы можете скачивать файлы