2 сезон

iTunes

1 сезон

1

iTunes

iTunes

iTunes

1 сезон

RePack

30

ИГРА 18+

pack

ВАЖНО

!!Акция!!

Alien_RageХит недели

RePack

MK11
pack

Забери бонус

RePack

jed

!!Акция!!

Alien_Rage

RePack

fifa19

RePack

Assassins Creed: Odyssey

RePack

NEED FOR SPEED™ PAYBACK

4 сезон

9 сезон

Бесстыжие 9 сезон

Все сериалы

все сериалы на PB.wtf

RePack

FAR CRY 5
  

Дюплекс / Duplex (Дэнни ДеВито) [2003 г., комедия, BDRip 720p, Дубляж, лицензия] pb.wtf

Дюплекс через торрент pb.wtf

Размер: 4.98 GB | Добавлен: 7 лет 6 мес. назад | Торрент скачан:57 раз
Скачать  

09-04-2013 08:40 Дюплекс Скачать торрент  



Дюплекс / Duplex
«It all started with one wrong move»

Год выпуска: 2003
Страна: США, Германия
Жанр: комедия,
Продолжительность: 01:29:09
Перевод: Дубляж, Лицензия
Тип релиза: Лицензия
Субтитры: Есть

Режиссер: Дэнни ДеВито
Продюссер: Дрю Бэрримор, Стюарт Корнфелд, Нэнси Джавонен
Сценарий: Ларри Дойл

Бюджет: $40 000 000

Мировой рейтинг IMDB 5.70 (32 723)


В ролях: Бен Стиллер, Дрю Бэрримор, Айлин Эссел, Харви Фирштейн, Джастин Теру, Джеймс Римар, Роберт Уиздом, Свузи Кёрц, Уоллес Шоун, Майя Рудольф, Денис Беспалый, Жанна Никонова, Ольга Сирина, Алексей Колган, Валерий Сторожик,

Описание: Алекс и Нэнси наконец-то нашли квартиру своей мечты — двухэтажные апартаменты в тихом районе. Но покупка оказалась с нагрузкой: дряхлой старушкой, которая не собирается съезжать! Супруги решают немного подождать, пока вынужденная соседка съедет на тот свет по естественным причинам. Но бодрость старушки не оставляет молодоженам ни шанса...Жизнь Алекса и Нэнси постепенно превращается в кошмар! Доведенные неожиданной активностью соседки до безумия, Алекс и Нэнси начинают разрабатывать зловещие планы физического устранения проблемы...

Качество: BDRip 720p
Формат: MKV
Видео кодек: H.264
Аудио кодек: AC3/FLAC
Видео: 1280x720, 5679 kbps, 23.976 fps
Аудио#1: AC-3, 48.0 KHz, 6 ch, 384 Kbps, CBR (Russian) профессиональный (полное дублирование)
Аудио#2: AC-3, 48.0 KHz, 6 ch, 384 Kbps, CBR (Russian) профессиональный (многоголосый, закадровый)
Аудио#3: AC-3, 48.0 KHz, 6 ch, 384 Kbps, CBR (Russian) профессиональный (многоголосый, закадровый)
Аудио#4: AC-3, 48.0 KHz, 6 ch, 448 Kbps, CBR (English)
Аудио #5: FLAC, 48.0 KHz, 2 ch, VBR (English)
Субтитры: Russian, English








Общее
Уникальный идентификатор : 195356364672253020495398209622259203073 (0x92F8446AD10EE8B6BB39C544D4C2FC01)
Полное имя : F:Duplex.2003.720p.BluRay.3xRus.2xEng.HDCLUB.mkv
Формат : Matroska
Версия формата : Version 4 / Version 2
Размер файла : 4,98 Гбайт
Продолжительность : 1 ч. 29 м.
Режим общего битрейта : Переменный
Общий поток : 8000 Кбит/сек
Дата кодирования : UTC 2013-04-08 04:33:18
Программа кодирования : mkvmerge v6.1.0 ('Old Devil') built on Mar 31 2013 15:21:18
Библиотека кодирования : libebml v1.3.0 + libmatroska v1.4.0

Видео
Идентификатор : 1
Формат : AVC
Формат/Информация : Advanced Video Codec
Профиль формата : High@L4.1
Параметр CABAC формата : Да
Параметр ReFrames формата : 9 кадров
Идентификатор кодека : V_MPEG4/ISO/AVC
Продолжительность : 1 ч. 29 м.
Ширина : 1280 пикселей
Высота : 720 пикселей
Соотношение сторон : 16:9
Режим частоты кадров : Постоянный
Частота кадров : 23,976 кадра/сек
Цветовое пространство : YUV
Субдискретизация насыщенности : 4:2:0
Битовая глубина : 8 бит
Тип развёртки : Прогрессивная
Заголовок : 720p, x264, crf 18.2, 5679 kbps, 23.976 fps, High Profile 4.1
Библиотека кодирования : x264 core 129 r2245 bc13772
Настройки программы : cabac=1 / ref=9 / deblock=1:-3:-3 / analyse=0x3:0x113 / me=tesa / subme=11 / psy=1 / psy_rd=1.00:0.00 / mixed_ref=1 / me_range=48 / chroma_me=1 / trellis=2 / 8x8dct=1 / cqm=0 / deadzone=21,11 / fast_pskip=0 / chroma_qp_offset=-2 / threads=6 / lookahead_threads=1 / sliced_threads=0 / nr=0 / decimate=1 / interlaced=0 / bluray_compat=0 / constrained_intra=0 / bframes=11 / b_pyramid=2 / b_adapt=2 / b_bias=0 / direct=3 / weightb=1 / open_gop=0 / weightp=2 / keyint=240 / keyint_min=23 / scenecut=40 / intra_refresh=0 / rc=crf / mbtree=0 / crf=18.2 / qcomp=0.70 / qpmin=0 / qpmax=69 / qpstep=4 / ip_ratio=1.40 / pb_ratio=1.30 / aq=1:0.70
Язык : English
Default : Да
Forced : Нет

Аудио #1
Идентификатор : 2
Формат : AC-3
Формат/Информация : Audio Coding 3
Расширение режима : CM (complete main)
Параметр Endianness формата : Big
Идентификатор кодека : A_AC3
Продолжительность : 1 ч. 29 м.
Вид битрейта : Постоянный
Битрейт : 384 Кбит/сек
Каналы : 6 каналов
Расположение каналов : Front: L C R, Side: L R, LFE
Частота : 48,0 КГц
Битовая глубина : 16 бит
Метод сжатия : С потерями
Размер потока : 245 Мбайт (5%)
Заголовок : Dublyazh AC3 5.1 384 kbps
Язык : Russian
Default : Да
Forced : Нет

Аудио #2
Идентификатор : 3
Формат : AC-3
Формат/Информация : Audio Coding 3
Расширение режима : CM (complete main)
Параметр Endianness формата : Big
Идентификатор кодека : A_AC3
Продолжительность : 1 ч. 29 м.
Вид битрейта : Постоянный
Битрейт : 384 Кбит/сек
Каналы : 6 каналов
Расположение каналов : Front: L C R, Side: L R, LFE
Частота : 48,0 КГц
Битовая глубина : 16 бит
Метод сжатия : С потерями
Размер потока : 245 Мбайт (5%)
Заголовок : MVO 1 (DDV) AC3 5.1 384 kbps (R1 signature 4612457846250)
Язык : Russian
Default : Нет
Forced : Нет

Аудио #3
Идентификатор : 4
Формат : AC-3
Формат/Информация : Audio Coding 3
Расширение режима : CM (complete main)
Параметр Endianness формата : Big
Идентификатор кодека : A_AC3
Продолжительность : 1 ч. 29 м.
Вид битрейта : Постоянный
Битрейт : 384 Кбит/сек
Каналы : 6 каналов
Расположение каналов : Front: L C R, Side: L R, LFE
Частота : 48,0 КГц
Битовая глубина : 16 бит
Метод сжатия : С потерями
Размер потока : 245 Мбайт (5%)
Заголовок : MVO 2 AC3 5.1 384 kbps (R1 signature NK01171 №67-607)
Язык : Russian
Default : Нет
Forced : Нет

Аудио #4
Идентификатор : 5
Формат : AC-3
Формат/Информация : Audio Coding 3
Расширение режима : CM (complete main)
Параметр Endianness формата : Big
Идентификатор кодека : A_AC3
Продолжительность : 1 ч. 29 м.
Вид битрейта : Постоянный
Битрейт : 448 Кбит/сек
Каналы : 6 каналов
Расположение каналов : Front: L C R, Side: L R, LFE
Частота : 48,0 КГц
Битовая глубина : 16 бит
Метод сжатия : С потерями
Размер потока : 286 Мбайт (6%)
Заголовок : From R1 DVD AC3 5.1 448 kbps
Язык : English
Default : Нет
Forced : Нет

Аудио #5
Идентификатор : 6
Формат : FLAC
Формат/Информация : Free Lossless Audio Codec
Идентификатор кодека : A_FLAC
Продолжительность : 1 ч. 29 м.
Вид битрейта : Переменный
Каналы : 2 канала
Частота : 48,0 КГц
Битовая глубина : 24 бит
Заголовок : From BluRay FLAC 2.0 719 kbps
Библиотека кодирования : libFLAC 1.2.1 (UTC 2007-09-17)
Язык : English
Default : Нет
Forced : Нет

Текст #1
Идентификатор : 7
Формат : UTF-8
Идентификатор кодека : S_TEXT/UTF8
Идентификатор кодека/Информация : UTF-8 Plain Text
Заголовок : Licence
Язык : Russian
Default : Нет
Forced : Нет

Текст #2
Идентификатор : 8
Формат : UTF-8
Идентификатор кодека : S_TEXT/UTF8
Идентификатор кодека/Информация : UTF-8 Plain Text
Язык : English
Default : Нет
Forced : Нет

Меню
00:00:00.000 : en:1. Welcome to Brooklyn
00:07:05.425 : en:2. Meet Mrs. Connelly
00:16:33.951 : en:3. Setting Boundaries
00:24:27.465 : en:4. The Answer to Our Prayers
00:33:30.008 : en:5. House Party
00:37:37.255 : en:6. Magazine Mix-Up
00:41:40.498 : en:7. Kill It With Kindness
00:46:43.800 : en:8. Storybook Ending
00:52:27.143 : en:9. Catching Colds
00:56:43.066 : en:10. It's a Sabotage
01:03:58.876 : en:11. Shooting of Mr. Peabody
01:06:24.981 : en:12. Murder Patrol
01:10:45.240 : en:13. Giving It Up
01:14:50.068 : en:14. Fire Fight
01:19:08.285 : en:15. Better Place


Дюплекс скачать торрент






pb.wtf



Скачать Дюплекс через торрент http://pic.kartinco.top/images/2/i6qap8zhew.png Скачать фильм Дюплекс через торрент бесплантно в хорошем качестве Описание: Алекс и Нэнси наконец-то нашли квартиру своей мечты — двухэтажные апартаменты в тихом районе. Но покупка оказалась с нагрузкой: ... 9.4 10 13
Info! Золотая раздача, скачанное не засчитывается.
Торрент: Зарегистрирован [2013-04-09 08:40] · скачан: 57 раз
Статус: √ проверено
Размер: 4.98 GB
Как cкачать? Как скачать Дюплекс через торрент | qTorrent

% Раздел Тема Автор DL S | L
Фильмы 2001-2005 [ 1.45 GB ] Дюплекс / Duplex [2003 BDRip] killermax2013 Скачать
2 | 0
Фильмы [HD 720p, 1080p] (Хороший звук DUB, MVO) [ 8.63 GB ] Дюплекс / Duplex [2003 BDRip 1080p] diletant Скачать
2 | 0
Фильмы 2001-2005 [ 1.37 GB ] Дюплекс / Duplex [2003 DVDRip] monaxz Скачать
1 | 0
Фильмы 2001-2005 [ 1.46 GB ] Дюплекс / Duplex [2003 DVDRip 26 сентября 2003] VintMosina Скачать
1 | 0

28-11-2019 20:33  

Отключить всю рекламу на сайте

09-04-2013 09:08 Дюплекс Скачать торрент  

Фильм просто улёт!!!Когда первый раз смотрел просто уссался!!!

Надо всё таки качнуть спосибо Ke$h@ что напомнил токой фильм!!! pb.wtf



09-04-2013 09:51 Дюплекс Скачать торрент  

Все-же раньше все было лучше даже юморpb.wtf



    Дорогой пользователь! Огромная просьба, поблагодарите релизера, оцените раздачу и оставьте свои комментарий, если Вы скачали Дюплекс через торрент бесплатно! Внесите свою лепту в развитие PiratBit!
    Комментировать посты могут только пользователи прошедшие не сложную регистрацию
    Показать сообщения:    

    Дюплекс через торрент
    Скачать бесплатно Дюплекс
    Дюплекс скачать торрент
    Дюплекс смотреть онлайн
    Cкачать фильм Дюплекс бесплатно
    Дюплекс скачать торрент в хорошем качестве
    Дюплекс смотреть онлайн бесплатно в хорошем качестве


    Вы не можете начинать темы
    Вы не можете отвечать на сообщения
    Вы не можете редактировать свои сообщения
    Вы не можете удалять свои сообщения
    Вы не можете голосовать в опросах
    Вы не можете прикреплять файлы к сообщениям
    Вы можете скачивать файлы