MEGA NEWS Получи личный уникальный адрес сайта и защити себя от блокировок. Внимание количество ограничено!!!

iTunes

1+1

iTunes

мы

iTunes

1

iTunes

Чернобыль

iTunes

Ральф против интернета

Лицензия

ПШазам

Лицензия

Игра престолов

Лицензия

30
pack

ВАЖНО

!!Акция!!

Alien_RageХит недели

RePack

Resident Evil 21

ИГРА 18+

pack

RePack

Metro:Exodus

!!Акция!!

Alien_Rage

RePack

fifa19

RePack

Assassins Creed: Odyssey

RePack

NEED FOR SPEED™ PAYBACK

3 сезон

9 сезон

Бесстыжие 9 сезон

Все сериалы

все сериалы на PB.wtf

RePack

FAR CRY 5
Ребята, катастрофически не хватает 1900р. для оплаты серверов за АВГУСТ (всвязи с блокировками трафик упал в 3 раза), 1-2р., выручайте.
  

Налево от лифта / A gauche en sortant de l'ascenseur (Эдуард Молинаро / Edouard Molinaro) [1988 г., Комедия, DVDRip] MVO pb.wtf

Налево от лифта через торрент pb.wtf

Размер: 744 MB | Добавлен: 6 лет 6 мес. назад | Торрент скачан:132 раза
Скачать  

10-04-2013 05:26 Налево от лифта Скачать торрент  

Налево от лифта / À gauche en sortant de l'ascenseur
Год выпуска: 1988
Страна: Франция
Жанр: Комедия
Продолжительность: 01:19:05
Перевод: Профессиональный (многоголосый, закадровый)
Субтитры: нет
Режиссер: Эдуард Молинаро / Edouard Molinaro
В ролях:
Пьер Ришар /Pierre Richard/, Эммануэль Беар /Emmanuelle Béart/, Ришар Боренже /Richard Bohringer/, Фанни Коттенсон /Fanny Cottencon/, Эрик Блан /Eric Blanc/, Жан-Мишель Дюпуа /Jean-Michel Dupuis/, Мартин Максиман /Martine Maximin/, Альбер Симоно /Albert Simono/, Эна Вал /Walle Aina/, Мишель Кретон /Michel Creton/, Пьер Вернье /Pierre Vernier/
Описание:
Робкий Ян и темпераментный Борис - художники, живущие по соседству. Ян влюбляется на вернисаже в прелестную замужнюю блондинку и приглашает ее к себе...
А Борис на той же выставке учиняет скандал, приревновав другую красавицу Еву к кому-то из публике. Острота комедийной ситуации усиливается тем, что дверь в квартиру Бориса постоянно захлопывается от сквозняков.
И полуобнаженная Ева вынуждена искать убежища в... квартире Яна, который в это же время ждет свою избранницу. Две парочки и Дверь вступают в истерически смешные приключения...
Качество: DVDRip
Формат: AVI
Видео кодек: XviD
Аудио кодек: MP3
Видео: 688x288 (2.39:1), 25 fps, XviD build 50 ~1178 kbps avg, 0.24 bit/pixel
Аудио: 48 kHz, MPEG Layer 3, 2 ch, ~128.00 kbps avg

D:Nalevo_ot_lifta_DVDRip_745_by dexter lex.avi
General
Complete name : D:Nalevo_ot_lifta_DVDRip_745_by dexter lex.avi
Format : AVI
Format/Info : Audio Video Interleave
File size : 744 MiB
Duration : 1h 19mn
Overall bit rate : 1 316 Kbps
Writing application : VirtualDubMod 1.5.10.3 | www.virtualdub-fr.org || (build 2550/release)
Writing library : VirtualDubMod build 2550/release
Video #0
ID : 0
Format : MPEG-4 Visual
Format profile : Advanced Simple@L5
Format settings, BVOP : 1
Format settings, QPel : No
Format settings, GMC : No warppoints
Format settings, Matrix : Custom
Codec ID : XVID
Codec ID/Hint : XviD
Duration : 1h 19mn
Bit rate : 1 178 Kbps
Width : 688 pixels
Height : 288 pixels
Display aspect ratio : 2.39:1
Frame rate : 25.000 fps
Color space : YUV
Chroma subsampling : 4:2:0
Bit depth : 8 bits
Scan type : Progressive
Compression mode : Lossy
Bits/(Pixel*Frame) : 0.238
Stream size : 666 MiB (90%)
Writing library : XviD 1.2.1 (UTC 2008-12-04)
Audio #1
ID : 1
Format : MPEG Audio
Format version : Version 1
Format profile : Layer 3
Codec ID : 55
Codec ID/Hint : MP3
Duration : 1h 19mn
Bit rate mode : Constant
Bit rate : 128 Kbps
Channel(s) : 2 channels
Sampling rate : 48.0 KHz
Compression mode : Lossy
Stream size : 72.4 MiB (10%)
Alignment : Aligned on interleaves
Interleave, duration : 40 ms (1.00 video frame)
Interleave, preload duration : 504 ms
Writing library : LAME3.99r
Encoding settings : -m s -V 4 -q 2 -lowpass 17 -b 128
http://multi-up.com/852738
pb.wtf



Скачать Налево от лифта через торрент http://i8.fastpic.ru/big/2010/0721/4b/c01b2c5dcad8ad81ebc2a81197263d4b.jpg Скачать фильм Налево от лифта через торрент бесплантно в хорошем качестве Описание:Робкий Ян и темпераментный Борис - художники, живущие по соседству. Ян влюбляется на вернисаже в прелестную замужнюю блондинку и ... 9.1 10 7
Info! Золотая раздача, скачанное не засчитывается.
Торрент: Зарегистрирован [2013-04-10 05:26] · скачан: 132 раз
Статус: √ проверено
Размер: 744 MB
Как cкачать? Как скачать Налево от лифта через торрент | qTorrent


>> Регистрируемся здесь <<






Отзывы и комментарии о схеме читаем и пишем здесь: ---> Отзывы и комментарии о схеме

Новые благодарочки в телеграм довольных пользователей:
скриншот   скриншот   скриншот   скриншот   скриншот

10-04-2013 12:27 Налево от лифта Скачать торрент  

в детстве смотрел - очень смешной фильм.pb.wtf



    Дорогой пользователь! Огромная просьба, поблагодарите релизера, оцените раздачу и оставьте свои комментарий, если Вы скачали Налево от лифта через торрент бесплатно! Внесите свою лепту в развитие PiratBit!
    Комментировать посты могут только пользователи прошедшие не сложную регистрацию
    Показать сообщения:    

    Налево от лифта через торрент
    Скачать бесплатно Налево от лифта
    Налево от лифта скачать торрент
    Налево от лифта смотреть онлайн
    Cкачать фильм Налево от лифта бесплатно
    Налево от лифта скачать торрент в хорошем качестве
    Налево от лифта смотреть онлайн бесплатно в хорошем качестве


    Вы не можете начинать темы
    Вы не можете отвечать на сообщения
    Вы не можете редактировать свои сообщения
    Вы не можете удалять свои сообщения
    Вы не можете голосовать в опросах
    Вы не можете прикреплять файлы к сообщениям
    Вы можете скачивать файлы