Ссылка на приватное зеркало нашего сайта всего за 1$. Внимание количество ограничено!!!

2 сезон

iTunes

1 сезон

1

2 сезон

2 сезон

iTunes

1 сезон

RePack

30

Ultimate

ВАЖНО

ИГРА 18+

pack

RePack

MK11
pack

Забери бонус

RePack

jed

!!Акция!!

Alien_Rage

RePack

fifa19

RePack

Assassins Creed: Odyssey

RePack

NEED FOR SPEED™ PAYBACK

4 сезон

9 сезон

Бесстыжие 9 сезон

Все сериалы

все сериалы на PB.wtf

RePack

FAR CRY 5
  

Добро пожаловать в рай / Into the Blue [x264] (Джон Стокуэлл) [2005 г., боевик, триллер, криминал, приключения, HDRip] pb.wtf

Добро пожаловать в рай через торрент pb.wtf

Размер: 1.37 GB | Добавлен: 7 лет 7 мес. назад | Торрент скачан:332 раза
Скачать  

10-04-2013 17:42 Добро пожаловать в рай Скачать торрент  

Добро пожаловать в рай / Into the Blue [x264]
Год выпуска: 2005
Страна: США
Жанр: боевик, триллер, криминал, приключения,
Продолжительность: 110 мин. / 01:50
В ролях: Пол Уокер (Jared), Джессика Альба (Samanta), Скотт Каан (Bryce), Эшли Скотт (Amanda), Джош Бролин (Bates), Джеймс Фрейн (Reyes), Тайсон Бекфорд (Primo), Дуэйн Эдвэй (Roy)
Режиссер: Джон Стокуэлл
Продюссер: Дэвид Зелон, Брэндон Биртелл, Рик Даллаго
Сценарий: Мэтт Джонсон
Перевод : Дублированный

Мировой рейтинг IMDB 5.70 (42 410)


Описание: Из пункта «А» в пункт «Б» летел небольшой частный самолетик и во время грозы потерпел аварию, где-то в акватории Багамских островов… Как раз в тех местах, где молодой парень Джаред, инструктор по дайвингу, мечтает в свободное от службы время о будущей лучшей жизни вместе со своей подружкой Самантой, которая работает в местном аквапарке.
В гости к ним приезжают Брайс, давний приятель Джареда, и тоже с подружкой — Амандой. Весело проводя время на земле и на море, они в ходе очередного заплыва на глубину натыкаются на затонувший самолет, полный аккуратно запечатанных мешочков, как выяснится, с кокаином…

Релиз от :
Качество: HDRip
Формат: MKV
Видео кодек: H.264
Аудио кодек: AC3
Видео: AVC/x264, 720x304 (2.35:1), 23.976 fps, 1 325 Kbps (0.252 bit/pixel)
Аудио#1: AC-3, 48.0 KHz, 6 ch, 448 Kbps, CBR
Релиз от: xGhost









General
Unique ID : 221369489829427869351071452526365456918 (0xA68A368229995FF4B2294EF5FE8D3A16)
Complete name : C:UsersxGhostDesktopDobro.pozhalovat'.v.raj.2005.D.HDRip.Rus.x264.1400MB.mkv
Format : Matroska
Format version : Version 2
File size : 1.37 GiB
Duration : 1h 50mn
Overall bit rate : 1 775 Kbps
Encoded date : UTC 2013-04-10 17:03:36
Writing application : mkvmerge v4.0.0 ('The Stars were mine')
Writing library : libebml v1.0.0 + libmatroska v1.0.0

Video
ID : 1
Format : AVC
Format/Info : Advanced Video Codec
Format profile : High@L4.1
Format settings, CABAC : Yes
Format settings, ReFrames : 12 frames
Codec ID : V_MPEG4/ISO/AVC
Duration : 1h 50mn
Bit rate : 1 325 Kbps
Width : 720 pixels
Height : 304 pixels
Display aspect ratio : 2.35:1
Frame rate mode : Constant
Frame rate : 23.976 fps
Color space : YUV
Chroma subsampling : 4:2:0
Bit depth : 8 bits
Scan type : Progressive
Bits/(Pixel*Frame) : 0.252
Stream size : 1 018 MiB (73%)
Writing library : x264 core 130 r2273 b3065e6
Encoding settings : cabac=1 / ref=12 / deblock=1:-3:-3 / analyse=0x3:0x113 / me=hex / subme=7 / psy=1 / psy_rd=1.00:0.15 / mixed_ref=1 / me_range=32 / chroma_me=1 / trellis=1 / 8x8dct=1 / cqm=0 / deadzone=21,11 / fast_pskip=1 / chroma_qp_offset=-2 / threads=6 / lookahead_threads=1 / sliced_threads=0 / nr=0 / decimate=1 / interlaced=0 / bluray_compat=0 / constrained_intra=0 / bframes=3 / b_pyramid=2 / b_adapt=1 / b_bias=0 / direct=1 / weightb=1 / open_gop=0 / weightp=2 / keyint=240 / keyint_min=22 / scenecut=40 / intra_refresh=0 / rc_lookahead=40 / rc=2pass / mbtree=1 / bitrate=1325 / ratetol=1.0 / qcomp=0.60 / qpmin=10 / qpmax=51 / qpstep=4 / cplxblur=20.0 / qblur=0.5 / vbv_maxrate=50000 / vbv_bufsize=62500 / nal_hrd=none / ip_ratio=1.40 / aq=1:1.00
Default : No
Forced : No

Audio
ID : 2
Format : AC-3
Format/Info : Audio Coding 3
Mode extension : CM (complete main)
Format settings, Endianness : Big
Codec ID : A_AC3
Duration : 1h 50mn
Bit rate mode : Constant
Bit rate : 448 Kbps
Channel(s) : 6 channels
Channel positions : Front: L C R, Side: L R, LFE
Sampling rate : 48.0 KHz
Bit depth : 16 bits
Compression mode : Lossy
Stream size : 353 MiB (25%)
Default : Yes
Forced : No


pb.wtf



Скачать Добро пожаловать в рай через торрент http://i40.fastpic.ru/big/2012/0724/f1/be6943e5dffda33cb5f4c849309e7ef1.png Скачать фильм Добро пожаловать в рай через торрент бесплантно в хорошем качестве Описание: Из пункта «А» в пункт «Б» летел небольшой частный самолетик и во время грозы потерпел аварию, где-то в акватории Багамских ... 8.8 10 14
Info! Золотая раздача, скачанное не засчитывается.
Торрент: Зарегистрирован [2013-04-10 17:42] · скачан: 332 раз
Статус: √ проверено
Размер: 1.37 GB
Как cкачать? Как скачать Добро пожаловать в рай через торрент | qTorrent

% Раздел Тема Автор DL S | L
Фильмы [HD 720p, 1080p] (Хороший звук DUB, MVO) [ 13.69 GB ] Добро пожаловать в рай! / Into the Blue [2005 BDRip ] Slipvit Скачать
1 | 0
Фильмы 2001-2005 [ 2.62 GB ] Добро пожаловать в рай! / Into the Blue [2005 BDRip] MIXX_ON Скачать
1 | 0
Фильмы 2001-2005 [ 1.45 GB ] Добро пожаловать в рай! / Into the Blue [2005 HDRip] feldeger Скачать
1 | 0
Фильмы 2001-2005 [ 689 MB ] Добро пожаловать в рай / Into the Blue [2005 DVDRip Пиратка] boromir9 Скачать
1 | 0
Фильмы 2001-2005 [ 1.35 GB ] Добро пожаловать в рай! / Into the Blue [2005 BDRip 1080p] Andruuha Скачать
1 | 0
Фильмы 2009 [ 1.36 GB ] Добро пожаловать в рай! 2 / Into the Blue 2: The Reef [2009 DVDRip] paul08 Скачать
1 | 0


Последний раз редактировалось: TekkenxD (2013-04-16 12:04), всего редактировалось 4 раз(а)

28-11-2019 20:33  

Отключить всю рекламу на сайте

10-04-2013 18:10 Добро пожаловать в рай Скачать торрент  

уважаемый, вы бы указали кто в фильме снялся pb.wtf



10-04-2013 21:17 Добро пожаловать в рай Скачать торрент  

TekkenxD
Укажи перевод.pb.wtf



    Дорогой пользователь! Огромная просьба, поблагодарите релизера, оцените раздачу и оставьте свои комментарий, если Вы скачали Добро пожаловать в рай через торрент бесплатно! Внесите свою лепту в развитие PiratBit!
    Комментировать посты могут только пользователи прошедшие не сложную регистрацию
    Показать сообщения:    

    Добро пожаловать в рай через торрент
    Скачать бесплатно Добро пожаловать в рай
    Добро пожаловать в рай скачать торрент
    Добро пожаловать в рай смотреть онлайн
    Cкачать фильм Добро пожаловать в рай бесплатно
    Добро пожаловать в рай скачать торрент в хорошем качестве
    Добро пожаловать в рай смотреть онлайн бесплатно в хорошем качестве


    Вы не можете начинать темы
    Вы не можете отвечать на сообщения
    Вы не можете редактировать свои сообщения
    Вы не можете удалять свои сообщения
    Вы не можете голосовать в опросах
    Вы не можете прикреплять файлы к сообщениям
    Вы можете скачивать файлы