Мега распродажа FORZA HORIZON 4 ULTIMATE+ВСЕ DLC+ОНЛАЙН всего за 499р. 349 руб. (супер цена). Внимание количество ограничено!!!

iTunes

1+1

iTunes

мы

iTunes

1

1 сезон

Чернобыль

1 сезон

Ральф против интернета

Лицензия

ПШазам

8 сезон

Игра престолов

Лицензия

30
pack

ВАЖНО

!!Акция!!

Alien_RageХит недели

RePack

Resident Evil 21

ИГРА 18+

pack

RePack

Metro:Exodus

!!Акция!!

Alien_Rage

RePack

fifa19

RePack

Assassins Creed: Odyssey

RePack

NEED FOR SPEED™ PAYBACK

3 сезон

9 сезон

Бесстыжие 9 сезон

Все сериалы

все сериалы на PB.wtf

RePack

FAR CRY 5
Ребята, катастрофически не хватает 2730р. для оплаты серверов за ИЮНЬ (всвязи с блокировками трафик упал в 3 раза), 1-2р., выручайте.
  

Семьянин / The Family Man (Бретт Рэтнер) [2000 г., драма, мелодрама, комедия, BDRip, Профессиональный Полный Дубляж + Оригинал, Субтритры (русские, английские)] pb.wtf

Семьянин через торрент pb.wtf

Размер: 2.18 GB | Добавлен: 6 лет 3 мес. назад | Торрент скачан:156 раз
Скачать  

11-04-2013 17:55 Семьянин Скачать торрент  

Семьянин / The Family Man«А вдруг...»

Год выпуска: 2000
Страна: США
Жанр: драма, мелодрама, комедия,
Продолжительность: 02:05:54
Перевод: Профессиональный + Оригинал
Тип релиза: Лицензия
Субтитры: (отдельно), (отдельно)

Режиссер: Бретт Рэтнер
Продюссер: Марк Абрахам, Тони Людвиг, Алан Ричи
Сценарий: Дэвид Даймонд, Дэвид Вайсман
Композитор: Дэнни Элфман

Бюджет: $60 000 000
Сборы в мире: $124 745 083
Премьера в мире: 12 декабря 2000

Рейтинг MPAA: детям до 13 лет просмотр не желателен




В ролях: Николас Кейдж, Теа Леони, Дон Чидл, Джереми Пивен, Сол Рубинек, Йозеф Зоммер, Макензи Вега, Джейк Миллкович, Райан Миллкович, Лиза Торнхилл и др.,

Описание:
Чтобы вы предпочли: быть президентом крупной инвестиционной компании, жить в роскошной квартире с видом на миллиард долларов,
раскатывать на последней модели «Феррари» и при этом оставаться холостяком или работать продавцом автопокрышек у «Большого Эда», покупать одежду
в супермаркете и передвигаться по родному пригороду на вместительном и еще не очень старом минивене?Не спешите с ответом, ведь недаром судьба,
в виде «обдолбанного» чернокожего деда мороза, преподносит Джеку шанс попробовать оба варианта. И поверьте, несмотря на обилие комичных ситуаций,
которые теперь являются неотъемлемой частью его жизни, Джеку предстоит непростой выбор.
:
Сатурн, 2001 год
Победитель (1):
[img]http://pic.kartinco.top/images/2/vxzlkimkg8.gif [/img]Лучшая актриса (Теа Леони)
Номинации (1):
[img]http://pic.kartinco.top/images/2/vxzlkimkg8.gif [/img]Лучший фэнтези-фильм
Качество: BDRip
Формат: AVI
Видео кодек: XviD
Аудио кодек: AC3
Видео: 720x304 (2.37:1), 23.976 fps, XviD build 64, 1822 kbps avg, 0.35 bit/pixel
Аудио#1: 48 kHz, AC3 Dolby Digital, 2/0 (L,R) ch, 192 kbps avg | Dub
Аудио#2: 48 kHz, AC3 Dolby Digital, 3/2 (L,C,R,l,r) + LFE ch, 448 kbps avg | Original
Semyanin.2000.DUAL.BDRip.XviD.AC3.-HQCLUB.avi
General
Complete name : Semyanin.2000.DUAL.BDRip.XviD.AC3.-HQCLUB.avi
Format : AVI
Format/Info : Audio Video Interleave
Format profile : OpenDML
File size : 2.18 GiB
Duration : 2h 5mn
Overall bit rate : 2 480 Kbps
Movie name : Ñåìüÿíèí / The Family Man (2000) BDRip
Director : AngelOfTrue
Genre : R.G.HQClub
Writing application : VirtualDubMod 1.5.10.3 | www.virtualdub-fr.org || (build 2550/release)
Original source form/Name : Movie
Copyright : http://hqclub.net/
Comment : 21.10.2011
Video #0
ID : 0
Format : MPEG-4 Visual
Format profile : Advanced Simple@L5
Format settings, BVOP : 1
Format settings, QPel : No
Format settings, GMC : No warppoints
Format settings, Matrix : Custom
Codec ID : XVID
Codec ID/Hint : XviD
Duration : 2h 5mn
Bit rate : 1 822 Kbps
Width : 720 pixels
Height : 304 pixels
Display aspect ratio : 2.35:1
Frame rate : 23.976 fps
Color space : YUV
Chroma subsampling : 4:2:0
Bit depth : 8 bits
Scan type : Progressive
Compression mode : Lossy
Bits/(Pixel*Frame) : 0.347
Stream size : 1.60 GiB (73%)
Writing library : XviD 64
Audio #1
ID : 1
Format : AC-3
Format/Info : Audio Coding 3
Format profile : Dolby Digital
Mode extension : CM (complete main)
Format settings, Endianness : Big
Codec ID : 2000
Duration : 2h 5mn
Bit rate mode : Constant
Bit rate : 192 Kbps
Channel(s) : 2 channels
Channel positions : Front: L R
Sampling rate : 48.0 KHz
Bit depth : 16 bits
Compression mode : Lossy
Stream size : 173 MiB (8%)
Alignment : Split accross interleaves
Interleave, duration : 42 ms (1.00 video frame)
Interleave, preload duration : 500 ms
Audio #2
ID : 2
Format : AC-3
Format/Info : Audio Coding 3
Mode extension : CM (complete main)
Format settings, Endianness : Big
Codec ID : 2000
Duration : 2h 5mn
Bit rate mode : Constant
Bit rate : 448 Kbps
Channel(s) : 6 channels
Channel positions : Front: L C R, Side: L R, LFE
Sampling rate : 48.0 KHz
Bit depth : 16 bits
Compression mode : Lossy
Stream size : 403 MiB (18%)
Alignment : Split accross interleaves
Interleave, duration : 42 ms (1.00 video frame)
Interleave, preload duration : 500 ms





Релиз от:
pb.wtf



Скачать Семьянин через торрент http://i.imgur.com/Y8rj3RM.jpg Скачать фильм Семьянин через торрент бесплантно в хорошем качестве Описание: Чтобы вы предпочли: быть президентом крупной инвестиционной компании, жить в роскошной квартире с видом на миллиард долларов, ... 8.9 10 8
Info! Золотая раздача, скачанное не засчитывается.
Торрент: Зарегистрирован [2013-04-11 17:55] · скачан: 156 раз
Статус: √ проверено
Размер: 2.18 GB
Как cкачать? Как скачать Семьянин через торрент | qTorrent

% Раздел Тема Автор DL S | L
Видео для КПК и Смартфонов [ 508 MB ] Семьянин / The Family Man [2000 BDRip / КПК] Skillters Скачать
1 | 0
Фильмы (BDRip, HDrip-AVC) (48-60 fps) [ 3.48 GB ] Семьянин / The Family Man [2000 BDRip-AVC 60 fps ] Tiberiumsun69 Скачать
1 | 0
Фильмы до 2000 г. [ 2.18 GB ] Семьянин / The Family Man [2000 BDRip] [АVO] + [Sub Rus] + Original Eng killermax2013 Скачать
1 | 0
Фильмы до 2000 г. [ 745 MB ] Семьянин / The Family Man [2000 DVDRip Полный ] ahm77 Скачать
1 | 0
Фильмы 2001-2005 [ 692 MB ] Семьянин / Family Man The [2000 ... DVDRip лицензия] XAOCEHOK Скачать
1 | 0


>> Регистрируемся здесь <<






Отзывы и комментарии о схеме читаем и пишем здесь: ---> Отзывы и комментарии о схеме

Новые благодарочки в телеграм довольных пользователей:
скриншот   скриншот   скриншот   скриншот   скриншот
    Дорогой пользователь! Огромная просьба, поблагодарите релизера, оцените раздачу и оставьте свои комментарий, если Вы скачали Семьянин через торрент бесплатно! Внесите свою лепту в развитие PiratBit!
    Комментировать посты могут только пользователи прошедшие не сложную регистрацию
    Показать сообщения:    

    Семьянин через торрент
    Скачать бесплатно Семьянин
    Семьянин скачать торрент
    Семьянин смотреть онлайн
    Cкачать фильм Семьянин бесплатно
    Семьянин скачать торрент в хорошем качестве
    Семьянин смотреть онлайн бесплатно в хорошем качестве


    Вы не можете начинать темы
    Вы не можете отвечать на сообщения
    Вы не можете редактировать свои сообщения
    Вы не можете удалять свои сообщения
    Вы не можете голосовать в опросах
    Вы не можете прикреплять файлы к сообщениям
    Вы можете скачивать файлы