2 сезон

iTunes

MVO

1

2 сезон

iTunes

iTunes

1 сезон

RePack

30

Новинка

ВАЖНО

ИГРА 18+

pack

RePack

MK11
pack

Легкие деньги

RePack

jed

RePack

fifa19

RePack

RDR2

RePack

NEED FOR SPEED™ PAYBACK

4 сезон

9 сезон

Бесстыжие 9 сезон

Все сериалы

все сериалы на PB.wtf

RePack

FAR CRY 5

Anonymous, добрый вечер, мы не успеваем собрать деньги на оплату серверов за декабрь и январь, помогите нам пожалуйста в это трудное время. В качестве благодарности мы отключим Вам всю рекламу на сайте (укажите свой ник в строку Ваше имя)!

×
  
Magnet ссылка

Герой 3D / Tai Chi Hero (Стивен Фанг) [2012 г., Боевик, приключения, BDRip 720p, DVO] Anaglyph (Дюбуа) pb.wtf

Герой 3D через торрент pb.wtf

Размер: 3.13 GB | Добавлен: 7 лет 9 мес. назад | Торрент скачан:75 раз
Скачать  

11-04-2013 18:41 Герой 3D Скачать торрент  

Герой 3D / Tai Chi Hero
Год выпуска: 2012
Страна: Китай / Diversion Pictures, Huayi Brothers & Taihe Film Investment
Жанр: Боевик, приключения,
Продолжительность: 01:42:36
Перевод: Любительский двухголосый [den904 и DeadSno]
Субтитры: Английские

Режиссер: Стивен Фанг
Продюссер: Чэнь Го-фу
Сценарий: Чэнь Го-фу

Бюджет: $40 000 000
Премьера в мире: 25 октября 2012



В ролях: Дэниэл Ву, Юань Сяочао, Ки Шу, Тони Люн Ка Фай, Анджела Бейби, Эдди Пэн, Петер Стормаре, Юэнь Бяо,

Описание: Ян и Юньян женятся, Ян постигает все тайны единоборств, но Фан, изгнанный с позором из деревни, возвращается с целой армией европейских наемников, чтобы изгнать жителей и проложить железную дорогу. Всей жителям предстоит объединиться, чтобы победить, а Ян должен проявить свои фантастические способности умноженные на новое знание чтобы прославиться и стать героем!

Доп. информация: Формат 3D: Anaglyph (Дюбуа)



Качество: BDRip 720p
Формат: MKV
Видео кодек: x264
Аудио кодек: AC3
Видео: 1280 х 534 / 23,976 fps, (2,40:1) / 4023 Kbps, (0.245 bit/pixel)
Аудио: Русский / AC3 / 48 KHz / 6 ch / 384 Kbps (den904, DeadSno)



скриншот   скриншот   скриншот   скриншот   скриншот   скриншот  
Общее
Уникальный идентификатор : 194807694158706886023272698205314693178 (0x928E98DF5432088387CA7323E467383A)
Полное имя : D:DVDTaiChiHero.3D.2012.(Anaglyph_Dubois).mkv
Формат : Matroska
Версия формата : Version 2
Размер файла : 3,13 Гбайт
Продолжительность : 1 ч. 42 м.
Общий поток : 4364 Кбит/сек
Название фильма : TaiChiHero.3D.2012.(Anaglyph_Dubois)
Дата кодирования : UTC 2013-04-11 10:04:28
Программа кодирования : mkvmerge v4.0.0 ('The Stars were mine') сборка от Jun 6 2010 16:18:42
Библиотека кодирования : libebml v1.0.0 + libmatroska v1.0.0

Видео
Идентификатор : 1
Формат : AVC
Формат/Информация : Advanced Video Codec
Профиль формата : High@L3.1
Параметр CABAC формата : Да
Параметр ReFrames формата : 4 кадра
Идентификатор кодека : V_MPEG4/ISO/AVC
Продолжительность : 1 ч. 42 м.
Битрейт : 4023 Кбит/сек
Ширина : 1280 пикселей
Высота : 534 пикселя
Соотношение сторон : 2,40:1
Режим частоты кадров : Постоянный
Частота кадров : 23,976 кадра/сек
Цветовое пространство : YUV
Субдискретизация насыщенности : 4:2:0
Битовая глубина : 8 бит
Тип развёртки : Прогрессивная
Бит/(Пиксели*Кадры) : 0.245
Размер потока : 2,79 Гбайт (89%)
Библиотека кодирования : x264 core 120
Настройки программы : cabac=1 / ref=3 / deblock=1:0:0 / analyse=0x3:0x113 / me=hex / subme=2 / psy=1 / psy_rd=1.00:0.00 / mixed_ref=1 / me_range=16 / chroma_me=1 / trellis=0 / 8x8dct=1 / cqm=0 / deadzone=21,11 / fast_pskip=1 / chroma_qp_offset=0 / threads=3 / sliced_threads=0 / nr=0 / decimate=1 / interlaced=0 / bluray_compat=0 / constrained_intra=0 / bframes=3 / b_pyramid=2 / b_adapt=1 / b_bias=0 / direct=1 / weightb=1 / open_gop=0 / weightp=2 / keyint=240 / keyint_min=24 / scenecut=40 / intra_refresh=0 / rc_lookahead=10 / rc=abr / mbtree=1 / bitrate=4023 / ratetol=1.0 / qcomp=0.60 / qpmin=3 / qpmax=69 / qpstep=4 / ip_ratio=1.40 / aq=1:1.00
Язык : English
Default : Да
Forced : Нет
Основные цвета : BT.709
Характеристики трансфера : BT.709
Коэффициенты матрицы : BT.709

Аудио
Идентификатор : 2
Формат : AC-3
Формат/Информация : Audio Coding 3
Расширение режима : CM (complete main)
Параметр Endianness формата : Big
Идентификатор кодека : A_AC3
Продолжительность : 1 ч. 42 м.
Вид битрейта : Постоянный
Битрейт : 384 Кбит/сек
Каналы : 6 каналов
Расположение каналов : Front: L C R, Side: L R, LFE
Частота : 48,0 КГц
Битовая глубина : 16 бит
Метод сжатия : С потерями
Размер потока : 282 Мбайт (9%)
Заголовок : DVO (den904, DeadSno) проект "Нет в Кино"
Язык : Russian
Default : Да
Forced : Нет

Текст
Идентификатор : 3
Формат : UTF-8
Идентификатор кодека : S_TEXT/UTF8
Идентификатор кодека/Информация : UTF-8 Plain Text
Заголовок : full
Язык : English
Default : Нет
Forced : Нет

pb.wtf



Скачать Герой 3D через торрент http://i52.fastpic.ru/big/2013/0411/31/fee03cfb26d34dc2837575edd6623b31.jpg Скачать фильм Герой 3D через торрент бесплантно в хорошем качестве Описание: Ян и Юньян женятся, Ян постигает все тайны единоборств, но Фан, изгнанный с позором из деревни, возвращается с целой армией ... 9.6 10 8
Info! Золотая раздача, скачанное не засчитывается.
Торрент: Зарегистрирован [2013-04-11 18:41] · скачан: 75 раз
Статус: √ проверено
Размер: 3.13 GB
Как cкачать? Как скачать Герой 3D через торрент | UTorrent

28-11-2019 20:33  

Отключить всю рекламу на сайте

12-04-2013 02:26 Герой 3D Скачать торрент  

3D - для трех глаз...pb.wtf



12-04-2013 05:35 Герой 3D Скачать торрент  

ТаможеНик писал(а):

3D - для трех глаз...

Что не так? Позвольте уточнить.pb.wtf



12-04-2013 08:47 Герой 3D Скачать торрент  

slaventi-69 писал(а):

ТаможеНик писал(а):

3D - для трех глаз...

Что не так? Позвольте уточнить.

просто написать же надо хоть что-то. а умного ничего не придумалось.pb.wtf



    Дорогой пользователь! Огромная просьба, поблагодарите релизера, оцените раздачу и оставьте свои комментарий, если Вы скачали Герой 3D через торрент бесплатно! Внесите свою лепту в развитие PiratBit!
    Комментировать посты могут только пользователи прошедшие не сложную регистрацию
    Показать сообщения:    

    Герой 3D через торрент
    Скачать бесплатно Герой 3D
    Герой 3D скачать торрент
    Герой 3D смотреть онлайн
    Cкачать фильм Герой 3D бесплатно
    Герой 3D скачать торрент в хорошем качестве
    Герой 3D смотреть онлайн бесплатно в хорошем качестве


    Вы не можете начинать темы
    Вы не можете отвечать на сообщения
    Вы не можете редактировать свои сообщения
    Вы не можете удалять свои сообщения
    Вы не можете голосовать в опросах
    Вы не можете прикреплять файлы к сообщениям
    Вы можете скачивать файлы