2 сезон

iTunes

1 сезон

1

iTunes

iTunes

iTunes

1 сезон

RePack

30

ИГРА 18+

pack

ВАЖНО

!!Акция!!

Alien_RageХит недели

RePack

MK11
pack

Забери бонус

RePack

jed

!!Акция!!

Alien_Rage

RePack

fifa19

RePack

Assassins Creed: Odyssey

RePack

NEED FOR SPEED™ PAYBACK

4 сезон

9 сезон

Бесстыжие 9 сезон

Все сериалы

все сериалы на PB.wtf

RePack

FAR CRY 5
  

Белый плен / Eight Below (Фрэнк Маршалл) [2006 г., драма, приключения, семейный, BDRip 1080p, Дубляж, лицензия] pb.wtf

Белый плен через торрент pb.wtf

Размер: 8.31 GB | Добавлен: 7 лет 6 мес. назад | Торрент скачан:65 раз
Скачать  

12-04-2013 10:13 Белый плен Скачать торрент  

Белый плен / Eight Below

«The Most Amazing Story Of Survival, Friendship, And Adventure Ever Told.»

Год выпуска: 2006
Страна: США
Жанр: драма, приключения, семейный,
Продолжительность: 02:00:24
Перевод: Дубляж, Лицензия
Тип релиза: Лицензия
Субтитры: Нет

Режиссер: Фрэнк Маршалл
Продюссер: Патрик Краули, Дэвид Хоберман, Гари Барбер
Сценарий: Дэвид ДиДжилио, Тосиро Исидо, Корэёси Курахара

Бюджет: $40 000 000

Мировой рейтинг IMDB 7.20 (30 693)


В ролях: Пол Уокер, Брюс Гринвуд, Джейсон Биггз, Мун Бладгуд, Венди Крюсон, Джерард Планкет, Аугуст Шелленберг.

Описание: Действие фильма разворачивается на бескрайних просторах Антарктики. Научная экспедиция, в состав которой входят Джерри Шепард, его лучший друг Купер и геолог, отправляется на поиски метеорита. Однако неожиданное происшествие и тяжелые погодные условия вынуждают их оставить свои собачьи упряжки и вернуться назад. И теперь восемь собак должны в течение шести месяцев бороться за выживание в ледяной пустыне и ждать, пока их спасут…

Качество: BDRip 1080p
Формат: MKV
Видео кодек: H.264
Аудио кодек: AC3/DTS
Видео: 1920x800 (2.40:1), 23.976 fps, 8 679 Kbps (0.236 bit/pixel)
Аудио#1: AC-3, 48.0 KHz, 6 ch, 448 Kbps, CBR (Russian)
Аудио#2: DTS, 48.0 KHz, 6 ch, 755 Kbps, CBR (English)






Общее
Уникальный идентификатор : 201380554097196031789604628451777919192 (0x97807BE32F32BD9BA826956221E538D8)
Полное имя : E:Белый плен.2006.BDRip.1080p.Rus.EngEight.Below.2006.BDRip.1080p.Rus.mkv
Формат : Matroska
Версия формата : Version 2
Размер файла : 7,68 Гбайт
Продолжительность : 2 ч. 0 м.
Общий поток : 9127 Кбит/сек
Название фильма : Eight Below 2006
Дата кодирования : UTC 2008-01-09 09:49:46
Программа кодирования : mkvmerge v2.1.0 ('Another Place To Fall') built on Aug 19 2007 13:40:07
Библиотека кодирования : libebml v0.7.7 + libmatroska v0.8.1

Видео
Идентификатор : 1
Формат : AVC
Формат/Информация : Advanced Video Codec
Профиль формата : High@L5.1
Параметр CABAC формата : Да
Параметр ReFrames формата : 8 кадров
Идентификатор кодека : V_MPEG4/ISO/AVC
Продолжительность : 2 ч. 0 м.
Битрейт : 8679 Кбит/сек
Ширина : 1920 пикселей
Высота : 800 пикселей
Соотношение сторон : 2,40:1
Режим частоты кадров : Постоянный
Частота кадров : 23,976 кадра/сек
Цветовое пространство : YUV
Субдискретизация насыщенности : 4:2:0
Битовая глубина : 8 бит
Тип развёртки : Прогрессивная
Бит/(Пиксели*Кадры) : 0.236
Размер потока : 7,15 Гбайт (93%)
Заголовок : x264 @ 8679kbps
Библиотека кодирования : x264 core 56 svn-672M
Настройки программы : cabac=1 / ref=5 / deblock=1:-4:-4 / analyse=0x3:0x133 / me=umh / subme=7 / brdo=1 / mixed_ref=1 / me_range=16 / chroma_me=1 / trellis=1 / 8x8dct=1 / cqm=2 / deadzone=21,11 / chroma_qp_offset=0 / threads=3 / nr=0 / decimate=1 / mbaff=0 / bframes=3 / b_pyramid=1 / b_adapt=1 / b_bias=0 / direct=3 / wpredb=1 / bime=1 / keyint=250 / keyint_min=25 / scenecut=40(pre) / rc=2pass / bitrate=8679 / ratetol=1.0 / rceq='blurCplx^(1-qComp)' / qcomp=0.60 / qpmin=10 / qpmax=51 / qpstep=4 / cplxblur=20.0 / qblur=0.5 / ip_ratio=1.40 / pb_ratio=1.30 / aq=1:0.5:15.0
Язык : English
Default : Да
Forced : Нет

Аудио
Идентификатор : 2
Формат : AC-3
Формат/Информация : Audio Coding 3
Расширение режима : CM (complete main)
Параметр Endianness формата : Big
Идентификатор кодека : A_AC3
Продолжительность : 2 ч. 0 м.
Вид битрейта : Постоянный
Битрейт : 448 Кбит/сек
Каналы : 6 каналов
Расположение каналов : Front: L C R, Side: L R, LFE
Частота : 48,0 КГц
Битовая глубина : 16 бит
Метод сжатия : С потерями
Размер потока : 386 Мбайт (5%)
Заголовок : AC3 at 448 kbps
Язык : Russian
Default : Да
Forced : Нет

Текст #1
Идентификатор : 3
Формат : ASS
Идентификатор кодека : S_TEXT/ASS
Идентификатор кодека/Информация : Advanced Sub Station Alpha
Метод сжатия : Без потерь
Язык : English
Default : Да
Forced : Нет

Текст #2
Идентификатор : 4
Формат : ASS
Идентификатор кодека : S_TEXT/ASS
Идентификатор кодека/Информация : Advanced Sub Station Alpha
Метод сжатия : Без потерь
Язык : Swedish
Default : Нет
Forced : Нет

Текст #3
Идентификатор : 5
Формат : ASS
Идентификатор кодека : S_TEXT/ASS
Идентификатор кодека/Информация : Advanced Sub Station Alpha
Метод сжатия : Без потерь
Язык : Norwegian
Default : Нет
Forced : Нет

Текст #4
Идентификатор : 6
Формат : ASS
Идентификатор кодека : S_TEXT/ASS
Идентификатор кодека/Информация : Advanced Sub Station Alpha
Метод сжатия : Без потерь
Язык : Finnish
Default : Нет
Forced : Нет

Текст #5
Идентификатор : 7
Формат : ASS
Идентификатор кодека : S_TEXT/ASS
Идентификатор кодека/Информация : Advanced Sub Station Alpha
Метод сжатия : Без потерь
Язык : Danish
Default : Нет
Forced : Нет



pb.wtf



Скачать Белый плен через торрент http://pic.kartinco.top/images/2/k36417zhen.png Скачать фильм Белый плен через торрент бесплантно в хорошем качестве Описание: Действие фильма разворачивается на бескрайних просторах Антарктики. Научная экспедиция, в состав которой входят Джерри Шепард, ... 9.8 10 13
Info! Золотая раздача, скачанное не засчитывается.
Торрент: Зарегистрирован [2013-04-12 10:13] · скачан: 65 раз
Статус: √ проверено
Размер: 8.31 GB
Как cкачать? Как скачать Белый плен через торрент | qTorrent

% Раздел Тема Автор DL S | L
Фильмы [HD 720p, 1080p] (Хороший звук DUB, MVO) [ 5.75 GB ] Белый плен / Eight Below [2005 BDRip 720p] DUB + AVO potroks Скачать
1 | 0
Фильмы 2006-2008 [ 1.46 GB ] Белый плен / Eight Below [2006 BDRip ] Alex_E Скачать
1 | 0
Фильмы [HD 720p, 1080p] (Хороший звук DUB, MVO) [ 2.23 GB ] Белый плен / Eight Below [2006 BDRip ] Shmel Скачать
1 | 0
Фильмы 2006-2008 [ 2.18 GB ] Белый плен / Eight Below [2006 BDRip] Lil Badun Скачать
1 | 0
Фильмы 2006-2008 [ 2.17 GB ] Белый плен / Eight Below [2006 HDRip-AVC] Dean24 Скачать
1 | 0
Фильмы 2006-2008 [ 1.37 GB ] Белый плен / Eight Below [2006 HDRip лицензия] TekkenxD Скачать
1 | 0
Фильмы 2006-2008 [ 746 MB ] Белый плен / Eight Below [2006 ... HDRip] Venxxx Скачать
1 | 0

28-11-2019 20:33  

Отключить всю рекламу на сайте

09-05-2013 05:40 Белый плен Скачать торрент  

фильм о любви и бескорыстной дружбе,о преданности и верности,о мужестве и долге.Однозначно смотреть всем и всей семьей.Смотрел уже давненько но впечатления до сих пор живы.Великолепно снят,прекрасная природа
.....pb.wtf



10-05-2013 16:57 Белый плен Скачать торрент  

urs, абсолютно поддерживаю. Прекрасный фильм.pb.wtf



    Дорогой пользователь! Огромная просьба, поблагодарите релизера, оцените раздачу и оставьте свои комментарий, если Вы скачали Белый плен через торрент бесплатно! Внесите свою лепту в развитие PiratBit!
    Комментировать посты могут только пользователи прошедшие не сложную регистрацию
    Показать сообщения:    

    Белый плен через торрент
    Скачать бесплатно Белый плен
    Белый плен скачать торрент
    Белый плен смотреть онлайн
    Cкачать фильм Белый плен бесплатно
    Белый плен скачать торрент в хорошем качестве
    Белый плен смотреть онлайн бесплатно в хорошем качестве


    Вы не можете начинать темы
    Вы не можете отвечать на сообщения
    Вы не можете редактировать свои сообщения
    Вы не можете удалять свои сообщения
    Вы не можете голосовать в опросах
    Вы не можете прикреплять файлы к сообщениям
    Вы можете скачивать файлы