Ссылка на приватное зеркало нашего сайта всего за 1$. Внимание количество ограничено!!!

2 сезон

iTunes

1 сезон

1

iTunes

iTunes

iTunes

1 сезон

RePack

30

ИГРА 18+

pack

ВАЖНО

!!Акция!!

Alien_RageХит недели

RePack

MK11
pack

Забери бонус

RePack

jed

!!Акция!!

Alien_Rage

RePack

fifa19

RePack

Assassins Creed: Odyssey

RePack

NEED FOR SPEED™ PAYBACK

4 сезон

9 сезон

Бесстыжие 9 сезон

Все сериалы

все сериалы на PB.wtf

RePack

FAR CRY 5
  

Дневник слабака 3 / Diary of a Wimpy Kid: Dog Days (Дэвид Бауэрс) [2012 г., комедия, семейный, BDRip 720p, MVO, лицензия] pb.wtf

Дневник слабака 3 через торрент pb.wtf

Размер: 7.72 GB | Добавлен: 7 лет 6 мес. назад | Торрент скачан:22 раза
Скачать  

12-04-2013 10:24 Дневник слабака 3 Скачать торрент  

Дневник слабака 3 / Diary of a Wimpy Kid: Dog Days

Год выпуска: 2012
Страна: США Канада
Жанр: комедия, семейный,
Продолжительность: 01:33:57
Перевод: Профессиональный многоголосый, Лицензия
Тип релиза: Лицензия
Субтитры: Есть

Режиссер: Дэвид Бауэрс
Продюссер: Нина Джейкобсон, Брэдфорд Симпсон, Джефф Кинни
Сценарий: Майя Форбс, Уоллес Володарски, Джефф Кинни

Бюджет: $22 000 000

Мировой рейтинг IMDB 6.10 (7 428)


В ролях: Захари Гордан, Стив Зан, Роберт Капрон, Девон Бостик, Рэйчел Харрис, Пейтон Лист, Грэйсон Расселл, Каран Брэр, Лэйн МакНил, Коннор Филдинг,

Описание: Школа закончилась и Грэг готов к теплым летним денькам. Точнее был готов до того момента, когда все его далеко идущие планы на лето в одночасье накрылись медным тазом. Чем же он теперь будет заниматься все лето?


Качество: BDRip 720p
Формат: MKV
Видео кодек: H.264
Аудио кодек: DTS
Видео: 1280x544 (2.35:1), 23.976 fps, 9 500 Kbps (0.569 bit/pixel)
Аудио#1: DTS, 48.0 KHz, 6 ch, 755 Kbps, CBR (Russian)
Аудио#2: DTS, 48.0 KHz, 6 ch, 1 510 Kbps, CBR (English)
Субтитры: Russian, Ukrainian, English






Общее
Уникальный идентификатор : 187995080013765860021230356753111522070 (0x8D6E890FF2B64B64A3026CA79A871B16)
Полное имя : E:Дневник слабака 3.2012.BDRip.720p.mkv
Формат : Matroska
Версия формата : Version 2
Размер файла : 7,72 Гбайт
Продолжительность : 1 ч. 33 м.
Общий поток : 11,8 Мбит/сек
Название фильма : IRONCLUB
Дата кодирования : UTC 2012-11-24 06:21:15
Программа кодирования : mkvmerge v4.9.1 ('Ich will') built on Jul 11 2011 23:53:15
Библиотека кодирования : libebml v1.2.1 + libmatroska v1.1.1

Видео
Идентификатор : 1
Формат : AVC
Формат/Информация : Advanced Video Codec
Профиль формата : High@L4.1
Параметр CABAC формата : Да
Параметр ReFrames формата : 12 кадров
Идентификатор кодека : V_MPEG4/ISO/AVC
Продолжительность : 1 ч. 33 м.
Битрейт : 9500 Кбит/сек
Ширина : 1280 пикселей
Высота : 544 пикселя
Соотношение сторон : 2,35:1
Режим частоты кадров : Постоянный
Частота кадров : 23,976 кадра/сек
Цветовое пространство : YUV
Субдискретизация насыщенности : 4:2:0
Битовая глубина : 8 бит
Тип развёртки : Прогрессивная
Бит/(Пиксели*Кадры) : 0.569
Размер потока : 6,07 Гбайт (79%)
Заголовок : Diary of a Wimpy Kid: Dog Days 2012 720p BluRay DTS x264-IRONCLUB
Библиотека кодирования : x264 core 129 r2230 1cffe9f
Настройки программы : cabac=1 / ref=12 / deblock=1:-3:-3 / analyse=0x3:0x113 / me=umh / subme=11 / psy=1 / psy_rd=1.20:0.00 / mixed_ref=1 / me_range=48 / chroma_me=1 / trellis=2 / 8x8dct=1 / cqm=0 / deadzone=21,11 / fast_pskip=0 / chroma_qp_offset=-2 / threads=12 / lookahead_threads=2 / sliced_threads=0 / nr=0 / decimate=1 / interlaced=0 / bluray_compat=0 / constrained_intra=0 / bframes=9 / b_pyramid=2 / b_adapt=2 / b_bias=0 / direct=3 / weightb=1 / open_gop=0 / weightp=2 / keyint=250 / keyint_min=23 / scenecut=40 / intra_refresh=0 / rc_lookahead=60 / rc=2pass / mbtree=0 / bitrate=9500 / ratetol=1.0 / qcomp=0.75 / qpmin=0 / qpmax=69 / qpstep=4 / cplxblur=20.0 / qblur=0.5 / vbv_maxrate=50000 / vbv_bufsize=62500 / nal_hrd=none / ip_ratio=1.30 / pb_ratio=1.10 / aq=1:0.85
Язык : English
Default : Да
Forced : Да
Коэффициенты матрицы : BT.709

Аудио #1
Идентификатор : 2
Формат : DTS
Формат/Информация : Digital Theater Systems
Режим : 16
Параметр Endianness формата : Big
Идентификатор кодека : A_DTS
Продолжительность : 1 ч. 33 м.
Вид битрейта : Постоянный
Битрейт : 768 Кбит/сек
Каналы : 6 каналов
Расположение каналов : Front: L C R, Side: L R, LFE
Частота : 48,0 КГц
Битовая глубина : 24 бит
Метод сжатия : С потерями
Размер потока : 516 Мбайт (7%)
Заголовок : DTS 5.1 @ 768 kbps - MVO, BD CEE
Язык : Russian
Default : Да
Forced : Да

Аудио #2
Идентификатор : 3
Формат : DTS
Формат/Информация : Digital Theater Systems
Режим : 16
Параметр Endianness формата : Big
Идентификатор кодека : A_DTS
Продолжительность : 1 ч. 33 м.
Вид битрейта : Постоянный
Битрейт : 1509 Кбит/сек
Каналы : 6 каналов
Расположение каналов : Front: L C R, Side: L R, LFE
Частота : 48,0 КГц
Битовая глубина : 24 бит
Метод сжатия : С потерями
Размер потока : 1014 Мбайт (13%)
Заголовок : DTS 5.1 @ 1536 kbps
Язык : English
Default : Нет
Forced : Нет

Текст #1
Идентификатор : 4
Формат : UTF-8
Идентификатор кодека : S_TEXT/UTF8
Идентификатор кодека/Информация : UTF-8 Plain Text
Язык : Russian
Default : Нет
Forced : Нет

Текст #2
Идентификатор : 5
Формат : UTF-8
Идентификатор кодека : S_TEXT/UTF8
Идентификатор кодека/Информация : UTF-8 Plain Text
Язык : Ukrainian
Default : Нет
Forced : Нет

Текст #3
Идентификатор : 6
Формат : UTF-8
Идентификатор кодека : S_TEXT/UTF8
Идентификатор кодека/Информация : UTF-8 Plain Text
Язык : English
Default : Нет
Forced : Нет

Меню
00:00:00.000 : en:00:00:00.000
00:05:20.362 : en:00:05:20.362
00:06:30.724 : en:00:06:30.724
00:10:10.735 : en:00:10:10.735
00:12:05.391 : en:00:12:05.391
00:16:22.190 : en:00:16:22.190
00:20:44.201 : en:00:20:44.201
00:23:27.197 : en:00:23:27.197
00:27:53.463 : en:00:27:53.463
00:31:16.083 : en:00:31:16.083
00:36:40.573 : en:00:36:40.573
00:40:10.908 : en:00:40:10.908
00:43:41.953 : en:00:43:41.953
00:48:55.432 : en:00:48:55.432
00:52:15.716 : en:00:52:15.716
00:54:32.227 : en:00:54:32.227
00:59:13.091 : en:00:59:13.091
01:02:26.201 : en:01:02:26.201
01:05:31.719 : en:01:05:31.719
01:08:22.140 : en:01:08:22.140
01:12:35.142 : en:01:12:35.142
01:15:20.266 : en:01:15:20.266
01:21:57.329 : en:01:21:57.329
01:27:19.985 : en:01:27:19.985

pb.wtf



Скачать Дневник слабака 3 через торрент http://pic.kartinco.top/images/2/76xcac9jq6.png Скачать фильм Дневник слабака 3 через торрент бесплантно в хорошем качестве Описание: Школа закончилась и Грэг готов к теплым летним денькам. Точнее был готов до того момента, когда все его далеко идущие планы на ... 10 10 4
Info! Золотая раздача, скачанное не засчитывается.
Торрент: Зарегистрирован [2013-04-12 10:24] · скачан: 22 раз
Статус: √ проверено
Размер: 7.72 GB
Как cкачать? Как скачать Дневник слабака 3 через торрент | qTorrent

% Раздел Тема Автор DL S | L
Фильмы 2012 [ 1.45 GB ] Дневник слабака 3 / Diary of a Wimpy Kid: Dog Days [2012 HDRip-AVC] MVO sokol_ok Скачать
2 | 0
Фильмы 2012 [ 2.88 GB ] Дневник слабака 3 / Diary of a Wimpy Kid: Dog Days [2012 BDRip-AVC MVO лицензия] slaventi-69 Скачать
1 | 0
Фильмы 2012 [ 1.37 GB ] Дневник слабака 3 / Diary of a Wimpy Kid: Dog Days [2012 HDRip MVO лицензия] gnev78 Скачать
1 | 0
Фильмы без перевода [ 1.37 GB ] Дневник слабака 3 / Diary of a Wimpy Kid: Dog Days [2012 DVDRip Перевод Отсутствует] smaster Скачать
1 | 0

28-11-2019 20:33  

Отключить всю рекламу на сайте

    Дорогой пользователь! Огромная просьба, поблагодарите релизера, оцените раздачу и оставьте свои комментарий, если Вы скачали Дневник слабака 3 через торрент бесплатно! Внесите свою лепту в развитие PiratBit!
    Комментировать посты могут только пользователи прошедшие не сложную регистрацию
    Показать сообщения:    

    Дневник слабака 3 через торрент
    Скачать бесплатно Дневник слабака 3
    Дневник слабака 3 скачать торрент
    Дневник слабака 3 смотреть онлайн
    Cкачать фильм Дневник слабака 3 бесплатно
    Дневник слабака 3 скачать торрент в хорошем качестве
    Дневник слабака 3 смотреть онлайн бесплатно в хорошем качестве


    Вы не можете начинать темы
    Вы не можете отвечать на сообщения
    Вы не можете редактировать свои сообщения
    Вы не можете удалять свои сообщения
    Вы не можете голосовать в опросах
    Вы не можете прикреплять файлы к сообщениям
    Вы можете скачивать файлы