Ссылка на приватное зеркало нашего сайта всего за 1$. Внимание количество ограничено!!!

2 сезон

iTunes

1 сезон

1

2 сезон

2 сезон

iTunes

1 сезон

RePack

30

Ultimate

ВАЖНО

ИГРА 18+

pack

RePack

MK11
pack

Забери бонус

RePack

jed

!!Акция!!

Alien_Rage

RePack

fifa19

RePack

Assassins Creed: Odyssey

RePack

NEED FOR SPEED™ PAYBACK

4 сезон

9 сезон

Бесстыжие 9 сезон

Все сериалы

все сериалы на PB.wtf

RePack

FAR CRY 5
  

Безумцы / Mad Men (Фил Абрахам, Дженнифер Гетцингер, Майкл Аппендаль) (Сезон: 6, серии 1-10 из ?) [2013 г., драма, WEB-DLRip, Профессиональный двухголосый, Кубик в Кубе] pb.wtf

Безумцы через торрент pb.wtf

Размер: 4.86 GB | Добавлен: 7 лет 5 мес. назад | Торрент скачан:3 раза
Скачать  

13-04-2013 10:49 Безумцы Скачать торрент  

Безумцы / Mad Men
Год выпуска: 2013
Страна: США
Жанр: драма,
Продолжительность: 0:45:00 мин.
Перевод: Профессиональный двухголосый, Кубик в Кубе

Режиссер: Фил Абрахам Дженнифер Гетцингер Майкл Аппендаль
Продюссер: Скотт Хорнбэкер, Мэттью Уэйнер, Андре Жакеметтон
Сценарий: Мэттью Уэйнер, Катер Гордон, Андре Жакеметтон

Мировой рейтинг IMDB 8.70 (73 988)


В ролях: Джон Хэмм, Элизабет Мосс, Винсент Картайзер, Джэньюэри Джонс, Кристина Хендрикс, Брайан Бэтт, Аарон Стэтон, Рич Соммер, Джон Слэттери,

Описание: США, 60-е годы ХХ века. В центре повествования — работа рекламного Агентства «Стерлинг-Купер», расположенного на престижной Медисон-авеню в центре Нью-Йорка, и жизнь его креативного директора — мастера манипуляций и интриг — Дона Дрейпера. Находясь на вершине карьеры, он противостоит конкурентам, стараясь сберечь своe положение в компании. Служебные и семейные перипетии Дона и его коллег происходят на фоне глобальных событий в жизни американского общества тех лет...

Качество: WEB-DLRip
Формат: AVI
Видео кодек: XviD
Аудио кодек: MP3
Видео: 624x352 (1.77:1), 23.976 fps, XviD build 65 ~1020 kbps avg, 0.19 bit/pixel
Аудио#1: 48 kHz, MPEG Layer 3, 2 ch, ~224.00 kbps avg
Аудио#2: 48 kHz, MPEG Layer 3, 2 ch, ~224.00 kbps avg
Релиз от: CasStudio

General
Complete name : F:ФТП 2WorkKybik v KybeMad Men Season 6 Kybik v KybeMad.Men.s05e01.rus.eng.Kybik.v.Kybe.avi
Format : AVI
Format/Info : Audio Video Interleave
File size : 491 MiB
Duration : 46mn 15s
Overall bit rate : 1 484 Kbps
Writing application : VirtualDubMod 1.5.10.2 (build 2540/release)
Writing library : VirtualDubMod build 2540/release
Video
ID : 0
Format : MPEG-4 Visual
Format profile : Advanced Simple@L5
Format settings, BVOP : 1
Format settings, QPel : No
Format settings, GMC : No warppoints
Format settings, Matrix : Default (H.263)
Codec ID : XVID
Codec ID/Hint : XviD
Duration : 46mn 15s
Bit rate : 1 022 Kbps
Width : 624 pixels
Height : 352 pixels
Display aspect ratio : 16:9
Frame rate : 23.976 fps
Color space : YUV
Chroma subsampling : 4:2:0
Bit depth : 8 bits
Scan type : Progressive
Compression mode : Lossy
Bits/(Pixel*Frame) : 0.194
Stream size : 338 MiB (69%)
Writing library : XviD 65
Audio #1
ID : 1
Format : MPEG Audio
Format version : Version 1
Format profile : Layer 3
Codec ID : 55
Codec ID/Hint : MP3
Duration : 46mn 15s
Bit rate mode : Constant
Bit rate : 224 Kbps
Channel(s) : 2 channels
Sampling rate : 48.0 KHz
Compression mode : Lossy
Stream size : 74.1 MiB (15%)
Alignment : Aligned on interleaves
Interleave, duration : 42 ms (1.00 video frame)
Interleave, preload duration : 504 ms
Audio #2
ID : 2
Format : MPEG Audio
Format version : Version 1
Format profile : Layer 3
Mode : Joint stereo
Mode extension : MS Stereo
Codec ID : 55
Codec ID/Hint : MP3
Duration : 46mn 15s
Bit rate mode : Constant
Bit rate : 224 Kbps
Channel(s) : 2 channels
Sampling rate : 48.0 KHz
Compression mode : Lossy
Stream size : 74.1 MiB (15%)
Alignment : Aligned on interleaves
Interleave, duration : 42 ms (1.00 video frame)
Interleave, preload duration : 504 ms
Writing library : LAME3.99r
Encoding settings : -m j -V 4 -q 2 -lowpass 19.4 -b 224


Безумцы скачать торрент


pb.wtf



Скачать Безумцы через торрент http://i51.fastpic.ru/big/2013/0411/06/488cedf055614790337e29c1663c3a06.jpg Скачать фильм Безумцы через торрент бесплантно в хорошем качестве Описание: США, 60-е годы ХХ века. В центре повествования — работа рекламного Агентства «Стерлинг-Купер», расположенного на престижной ... 7.8 10 4
Info! Золотая раздача, скачанное не засчитывается.
Торрент: Зарегистрирован [2013-06-13 15:41] · скачан: 3 раз
Статус: √ проверено
Размер: 4.86 GB
Как cкачать? Как скачать Безумцы через торрент | qTorrent

% Раздел Тема Автор DL S | L
Зарубежные сериалы [ 6.97 GB ] Безумцы / Mad Men / Сезон: 6 / Серии: 1-13 [2013 WEB-DLRip 400p] MVO Messa-fan Скачать
1 | 0
Порно фильмы с сюжетом [ 1.36 GB ] This Isn't Mad Men: The XXX Parody / Это Не Сериал "Безумцы": Это XXX Пародия [2010 Feature Spoofs & Parodies DVDRip] Shmel Скачать
1 | 0


Последний раз редактировалось: qwerty411 (2013-06-13 15:41), всего редактировалось 8 раз(а)

28-11-2019 20:33  

Отключить всю рекламу на сайте

13-04-2013 10:52 Безумцы Скачать торрент  

Если кому-то интересно, то могу выложить 5-й сезон в такой же озвучке.
Первые два сезона показывали по Первому каналу в их дубляже.
Первые четыре сезона транслировались по FoxLife в их многоголосом переводе.pb.wtf



14-04-2013 01:59 Безумцы Скачать торрент  

Раздача обновлена!
Добавил 2 серию!
pb.wtf



18-04-2013 14:59 Безумцы Скачать торрент  

Раздача обновлена!
Добавлена 3 серия!
pb.wtf



25-04-2013 07:07 Безумцы Скачать торрент  

Раздача обновлена!
Добавлена 4 серия!
pb.wtf



14-05-2013 12:52 Безумцы Скачать торрент  

Раздача обновлена!
Добавлена 5 серия!
pb.wtf



22-05-2013 16:38 Безумцы Скачать торрент  

Раздача обновлена!
Добавлены 6 и 7 серии!
pb.wtf



24-05-2013 07:45 Безумцы Скачать торрент  

Раздача обновлена!
Добавлена 8 серия!
pb.wtf



24-05-2013 10:26 Безумцы Скачать торрент  

раздающий не спатьpb.wtf



24-05-2013 10:30 Безумцы Скачать торрент  

на раздачуpb.wtf



03-06-2013 12:40 Безумцы Скачать торрент  

Раздача обновлена!
Добавлена 9 серия!
pb.wtf



13-06-2013 15:41 Безумцы Скачать торрент  

Раздача обновлена!
Добавлена 10 серия!
pb.wtf



    Дорогой пользователь! Огромная просьба, поблагодарите релизера, оцените раздачу и оставьте свои комментарий, если Вы скачали Безумцы через торрент бесплатно! Внесите свою лепту в развитие PiratBit!
    Комментировать посты могут только пользователи прошедшие не сложную регистрацию
    Показать сообщения:    

    Безумцы через торрент
    Скачать бесплатно Безумцы
    Безумцы скачать торрент
    Безумцы смотреть онлайн
    Cкачать фильм Безумцы бесплатно
    Безумцы скачать торрент в хорошем качестве
    Безумцы смотреть онлайн бесплатно в хорошем качестве


    Вы не можете начинать темы
    Вы не можете отвечать на сообщения
    Вы не можете редактировать свои сообщения
    Вы не можете удалять свои сообщения
    Вы не можете голосовать в опросах
    Вы не можете прикреплять файлы к сообщениям
    Вы можете скачивать файлы