2 сезон

iTunes

1 сезон

1

iTunes

iTunes

iTunes

1 сезон

RePack

30

ИГРА 18+

pack

ВАЖНО

!!Акция!!

Alien_RageХит недели

RePack

MK11
pack

Забери бонус

RePack

jed

!!Акция!!

Alien_Rage

RePack

fifa19

RePack

Assassins Creed: Odyssey

RePack

NEED FOR SPEED™ PAYBACK

4 сезон

9 сезон

Бесстыжие 9 сезон

Все сериалы

все сериалы на PB.wtf

RePack

FAR CRY 5
  

Работа Для Дженны / A Job For Jenna (Robby D. / Digital Playground) [2010 г., Feature, Teachers, Widescreen, 18 Teens, BDRip 720p, Оригинал] pb.wtf

Работа Для Дженны через торрент pb.wtf

Размер: 4.37 GB | Добавлен: 7 лет 6 мес. назад | Торрент скачан:96 раз
Скачать  

13-04-2013 14:29 Работа Для Дженны Скачать торрент  

Работа Для Дженны / A Job For Jenna
Год выпуска: 2010
Страна: США
Жанр: Feature, Teachers, Widescreen, 18 Teens
Продолжительность: 01:44:24
Перевод: Оригинал

Режиссер: Robby D.
Студия: Digital Playground

В ролях: Jenna Haze, Charles Dera, Jennifer White, Delila Darling, McKenzie, Tommy Gunn, Mick Blue, Scott Nails, David Perry

Описание: She's a fast earner.
Jenna Haze is a naughty teen, hungry to explore the perverted needs of her sexy male teacher. She's learning how delicious it is to have a hot wet, tongue tickle her forbidden places, like deep in her puckering tight holes. She teases and pleases, exploring sexual situations over her head, on a fast track to discovering the wildness of nasty perversions.

Качество: BDRip 720p
Формат: MKV
Видео кодек: H.264
Аудио кодек: AC3
Видео: MKV, Size:1280x720 pixels, Frame rate:29.97fps, Bit rate:5347 Kbps
Аудио: AC-3 audio, Surround 5.1, Sample rate:48000Hz, stereo, Bit rate:640 Kbps
UniqueID : 181359308293565257484029802885372903387 (0x88708841C580B3B1A6142E32D09EFFDB)
Complete name : F:jiggly-ajob4jenna-720p.mkv
Format : Matroska
File size : 796 MiB
Duration : 1h 44mn
Overall bit rate : 1 065 Kbps
Encoded date : UTC 2011-04-02 04:07:23
Writing application : mkvmerge v4.4.0 ('Die Wiederkehr') built on Oct 31 2010 21:52:48
Writing library : libebml v1.0.0 libmatroska v1.0.0

Video
ID : 1
Format : AVC
Format/Info : Advanced Video Codec
Format profile : High@L4.1
Format settings, CABAC : Yes
Format settings, ReFrames : 5 frames
Muxing mode : Header stripping
Codec ID : V_MPEG4/ISO/AVC
Duration : 1h 44mn
Bit rate : 404 Kbps
Width : 1 280 pixels
Height : 720 pixels
Display aspect ratio : 16:9
Frame rate : 23.976 fps
Color space : YUV
Chroma subsampling : 4:2:0
Bit depth : 8 bits
Scan type : Progressive
Bits/(Pixel*Frame) : 0.018
Stream size : 302 MiB (38%)
Language : English

Audio
ID : 2
Format : AC-3
Format/Info : Audio Coding 3
Mode extension : CM (complete main)
Muxing mode : Header stripping
Codec ID : A_AC3
Duration : 1h 44mn
Bit rate mode : Constant
Bit rate : 640 Kbps
Channel(s) : 6 channels
Channel positions : Front: L C R, Side: L R, LFE
Sampling rate : 48.0 KHz
Bit depth : 16 bits
Compression mode : Lossy
Stream size : 479 MiB (60%)
pb.wtf



pack Скачать Работа Для Дженны через торрент http://i46.fastpic.ru/big/2013/0413/35/790c50a46a1e4128851ebfa794ba6c35.png Скачать фильм Работа Для Дженны через торрент бесплантно в хорошем качестве Описание: She's a fast earner.Jenna Haze is a naughty teen, hungry to explore the perverted needs of her sexy male teacher. She's learning ... 10 10 2
Info! Золотая раздача, скачанное не засчитывается.
Торрент: Зарегистрирован [2013-04-13 14:29] · скачан: 96 раз
Статус: √ проверено
Размер: 4.37 GB
Как cкачать? Как скачать Работа Для Дженны через торрент | qTorrent

% Раздел Тема Автор DL S | L
Порно фильмы с сюжетом [ 698 MB ] Работа Для Дженны / A Job For Jenna [2010 Feature Teachers Widescreen 18 Teens DVDRip Оригинал] nn99nn Скачать
1 | 0

28-11-2019 20:33  

Отключить всю рекламу на сайте

    Дорогой пользователь! Огромная просьба, поблагодарите релизера, оцените раздачу и оставьте свои комментарий, если Вы скачали Работа Для Дженны через торрент бесплатно! Внесите свою лепту в развитие PiratBit!
    Комментировать посты могут только пользователи прошедшие не сложную регистрацию
    Показать сообщения:    

    Работа Для Дженны через торрент
    Скачать бесплатно Работа Для Дженны
    Работа Для Дженны скачать торрент
    Работа Для Дженны смотреть онлайн
    Cкачать фильм Работа Для Дженны бесплатно
    Работа Для Дженны скачать торрент в хорошем качестве
    Работа Для Дженны смотреть онлайн бесплатно в хорошем качестве


    Вы не можете начинать темы
    Вы не можете отвечать на сообщения
    Вы не можете редактировать свои сообщения
    Вы не можете удалять свои сообщения
    Вы не можете голосовать в опросах
    Вы не можете прикреплять файлы к сообщениям
    Вы можете скачивать файлы